VERSION	0.00.00	1.03.00
FES_MODE	0
BPM_DEF	222.000	222.000	222.000	222.000
MET_DEF	4	4
RESOLUTION	384
CLK_DEF	384
COMPATIBLE_CODE	MA2

BPM	0	0	222.000
MET	0	0	4	4

STR	2	0	0
SLL	2	0	0	96	192	4
SLL	2	0	0	96	192	4
SLR	2	0	0	96	192	4
STR	3	0	0
SF_	3	0	0	96	192	4
TAP	4	0	0
TAP	4	96	1
TAP	4	96	7
TTP	4	192	2	E	0	M1
TTP	4	192	6	E	0	M1
TTP	4	288	0	E	0	M1
TTP	4	288	4	E	0	M1
THO	5	0	0	192	C	0	M1
HLD	6	0	0	96
HLD	6	0	7	96
HLD	6	192	5	96
HLD	6	192	6	96
HLD	7	0	3	96
HLD	7	0	4	96
HLD	7	192	1	96
HLD	7	192	2	96
TAP	8	0	0
TAP	8	96	7
STR	8	192	5
SV_	8	192	5	96	192	3
STR	8	192	6
SLR	8	192	6	96	192	2
TAP	9	192	4
TAP	9	240	3
BRK	9	336	1
BRK	9	336	6
TAP	10	48	7
TAP	10	96	1
STR	10	144	3
SI_	10	144	3	96	48	0
XTP	10	240	3
XTP	10	240	4
XTP	10	336	1
XTP	10	336	7
TAP	11	48	0
TAP	11	96	6
STR	11	144	4
SI_	11	144	4	96	48	7
XTP	11	240	3
XTP	11	240	4
XTP	11	336	0
XTP	11	336	6
TAP	12	48	7
TAP	12	96	1
STR	12	144	3
SI_	12	144	3	96	48	0
XTP	12	240	3
XTP	12	240	4
XST	12	336	7
SI_	12	336	7	96	48	3
TAP	13	48	0
TAP	13	96	1
TAP	13	144	2
TAP	13	240	3
TAP	13	240	4
BRK	13	336	0
BRK	13	336	4
TAP	14	48	7
TAP	14	96	1
TAP	14	144	2
STR	14	144	3
SI_	14	144	3	96	48	7
XTP	14	240	3
XTP	14	240	4
XTP	14	336	0
XTP	14	336	5
TAP	15	48	0
TAP	15	96	6
STR	15	144	4
SI_	15	144	4	96	48	0
TAP	15	144	5
XTP	15	240	3
XTP	15	240	4
XTP	15	336	2
XTP	15	336	7
TAP	16	48	7
TAP	16	96	1
TAP	16	144	2
STR	16	144	3
SI_	16	144	3	96	48	7
XTP	16	240	3
XTP	16	240	4
BST	16	336	6
SI_	16	336	6	96	48	2
BST	17	48	0
SI_	17	48	0	96	48	4
BST	17	144	5
SI_	17	144	5	96	48	1
BRK	17	240	7
XTP	18	0	3
XTP	18	0	4
TAP	18	96	6
TAP	18	144	4
TAP	18	240	2
TAP	18	288	3
TAP	18	336	2
TAP	19	0	3
TAP	19	0	4
TAP	19	96	1
TAP	19	144	3
TAP	19	240	5
TAP	19	288	4
TAP	19	336	5
TAP	20	0	3
TAP	20	0	4
TAP	20	96	2
TAP	20	144	1
TAP	20	144	4
STR	20	240	2
SLL	20	240	2	96	240	4
TAP	20	240	5
HLD	20	336	6	240
TAP	21	288	2
TAP	21	288	5
TAP	22	0	3
TAP	22	0	4
TAP	22	96	1
TAP	22	144	3
TAP	22	240	5
TAP	22	288	4
TAP	22	336	5
TAP	23	0	3
TAP	23	0	4
TAP	23	96	6
TAP	23	144	4
TAP	23	240	2
TAP	23	288	3
TAP	23	336	2
TAP	24	0	3
TAP	24	0	4
TAP	24	96	5
TAP	24	144	3
STR	24	144	6
SCL	24	144	6	96	96	3
STR	24	240	3
SLL	24	240	3	96	240	6
SLR	24	240	3	96	240	0
TAP	25	288	3
TAP	25	288	4
XTP	26	0	2
XTP	26	0	7
TAP	26	96	6
TAP	26	144	4
TAP	26	240	0
TAP	26	288	1
TAP	26	336	2
TAP	27	0	3
TAP	27	0	4
TAP	27	96	1
TAP	27	144	3
TAP	27	240	7
TAP	27	288	6
TAP	27	336	5
TAP	28	0	3
TAP	28	0	4
TAP	28	96	2
STR	28	144	1
SCR	28	144	1	96	96	4
TAP	28	144	4
STR	28	240	4
SXL	28	240	4	96	240	1
HLD	28	336	6	240
TAP	29	288	2
TAP	29	288	5
TAP	30	0	3
TAP	30	0	4
TAP	30	96	1
TAP	30	144	3
TAP	30	240	7
TAP	30	288	6
TAP	30	336	5
TAP	31	0	3
TAP	31	0	4
TAP	31	96	6
TAP	31	144	4
TAP	31	240	0
TAP	31	288	1
TAP	31	336	2
TAP	32	0	3
TAP	32	0	4
TAP	32	96	4
STR	32	144	4
SCL	32	144	4	96	96	0
STR	32	240	0
SCL	32	240	0	96	240	0
HLD	32	336	4	240
TAP	33	288	3
TAP	33	288	4
HLD	34	0	5	288
TAP	34	96	4
TAP	34	192	3
TAP	34	288	2
XST	35	0	1
SI_	35	0	1	96	48	3
XST	35	96	0
SI_	35	96	0	96	48	4
XST	35	192	7
SI_	35	192	7	96	48	5
HLD	36	0	2	288
TAP	36	96	3
TAP	36	192	4
TAP	36	288	5
XST	37	0	6
SI_	37	0	6	96	48	4
XST	37	96	7
SI_	37	96	7	96	48	3
XST	37	192	0
SI_	37	192	0	96	48	2
XTP	38	0	4
XTP	38	0	5
TAP	38	96	2
HLD	38	144	1	192
TAP	38	144	3
TAP	38	240	0
TAP	38	336	6
TTP	39	48	3	B	0	M1
TTP	39	48	4	E	0	M1
TTP	39	48	4	B	0	M1
TTP	39	144	0	B	0	M1
TTP	39	144	0	E	0	M1
TTP	39	144	7	B	0	M1
TTP	39	240	1	B	0	M1
TTP	39	240	2	B	0	M1
TTP	39	240	5	B	0	M1
TTP	39	240	6	B	0	M1
THO	39	336	0	240	C	0	M1
TAP	41	0	0
TAP	41	48	7
TAP	41	96	1
TAP	41	144	6
STR	41	192	2
SCR	41	192	2	96	48	5
TAP	41	288	7
HLD	42	0	6	288
TAP	42	96	4
TAP	42	144	4
TAP	42	240	3
TAP	42	288	3
XST	43	0	2
SXR	43	0	2	96	96	1
XTP	43	96	4
XST	43	192	3
SXL	43	192	3	96	96	4
HLD	44	0	1	384
TAP	44	96	3
TAP	44	144	3
TAP	44	240	4
TAP	44	288	4
XST	45	0	5
SXL	45	0	5	96	96	6
XTP	45	96	3
XST	45	192	4
SXR	45	192	4	96	96	3
TAP	46	0	5
TAP	46	96	3
TAP	46	144	3
TAP	46	144	4
TAP	46	240	0
TAP	46	240	2
TAP	46	336	0
TAP	46	336	6
TAP	47	48	4
TAP	47	48	6
TAP	47	144	3
TAP	47	192	4
TAP	47	240	3
TAP	47	336	1
TAP	47	336	6
TAP	48	0	1
TAP	48	0	6
XST	48	48	0
SI_	48	48	0	96	48	2
XST	48	48	7
SI_	48	48	7	96	48	5
XST	48	144	0
SI_	48	144	0	96	48	4
XST	48	144	7
SI_	48	144	7	96	48	3
XTP	48	240	0
XTP	48	240	7
BRK	48	336	1
BRK	48	336	6
TAP	49	288	3
TAP	49	288	4
XTP	50	0	0
XTP	50	0	2
TAP	50	96	3
STR	50	144	4
SI_	50	144	4	96	48	0
TAP	50	240	5
TAP	50	288	5
TAP	51	0	1
TAP	51	96	4
STR	51	144	3
SI_	51	144	3	96	48	7
TAP	51	240	2
TAP	51	288	2
STR	52	0	6
SCL	52	0	6	96	96	3
STR	52	96	3
SI_	52	96	3	96	96	7
STR	52	192	7
SCR	52	192	7	96	96	2
STR	52	288	2
SXR	52	288	2	96	192	6
XHO	53	0	0	192
TAP	53	240	7
TAP	53	288	0
STR	54	0	2
SCL	54	0	2	96	48	7
TAP	54	96	5
STR	54	144	5
SCL	54	144	5	96	48	2
TAP	54	240	0
TAP	54	288	1
STR	55	0	5
SCR	55	0	5	96	48	0
TAP	55	96	2
STR	55	144	2
SCR	55	144	2	96	48	5
TAP	55	240	7
TAP	55	288	6
STR	56	0	4
SI_	56	0	4	96	48	0
TAP	56	0	5
STR	56	96	7
SI_	56	96	7	96	48	3
STR	56	192	1
SI_	56	192	1	96	48	5
TAP	56	288	7
TAP	56	336	7
TAP	57	48	1
TAP	57	48	6
TAP	57	96	1
TAP	57	96	6
TAP	57	192	3
TAP	57	192	4
TAP	57	288	2
TAP	57	288	5
XTP	58	0	5
XTP	58	0	7
TAP	58	96	4
STR	58	144	3
SI_	58	144	3	96	48	7
TAP	58	240	2
TAP	58	288	1
TAP	59	0	6
TAP	59	96	3
STR	59	144	4
SI_	59	144	4	96	48	0
TAP	59	240	5
TAP	59	288	6
STR	60	0	1
SCR	60	0	1	96	96	4
STR	60	96	4
SI_	60	96	4	96	96	0
STR	60	192	0
SCL	60	192	0	96	96	5
STR	60	288	5
SXL	60	288	5	96	192	1
XHO	61	0	7	192
TAP	61	240	0
TAP	61	288	7
STR	62	0	5
SCR	62	0	5	96	48	0
TAP	62	96	1
STR	62	144	1
SV_	62	144	1	96	48	4
TAP	62	240	7
TAP	62	288	6
STR	63	0	2
SCL	63	0	2	96	48	7
TAP	63	96	6
STR	63	144	6
SV_	63	144	6	96	48	3
TAP	63	240	0
TAP	63	288	1
TAP	64	0	2
STR	64	0	4
SI_	64	0	4	96	48	0
STR	64	96	1
SI_	64	96	1	96	48	5
STR	64	192	6
SCL	64	192	6	96	48	3
TAP	64	288	7
TAP	64	336	7
TAP	65	48	3
TAP	65	48	7
TAP	65	96	3
TAP	65	96	7
TAP	65	192	3
TAP	65	192	4
TAP	65	240	2
TAP	65	240	5
TAP	65	336	0
TAP	65	336	7
BRK	66	0	1
XHO	66	0	6	576
TAP	66	96	4
TAP	66	144	4
TAP	66	240	7
TAP	66	288	7
TAP	67	0	5
TAP	67	48	5
TAP	67	144	0
XST	67	192	0
SI_	67	192	0	96	48	3
SI_	67	192	0	96	48	5
XTP	67	288	0
XHO	68	0	1	576
BRK	68	0	6
TAP	68	96	3
TAP	68	144	3
TAP	68	240	0
TAP	68	288	0
TAP	69	0	2
TAP	69	48	2
TAP	69	144	7
XST	69	192	7
SI_	69	192	7	96	48	2
SI_	69	192	7	96	48	4
XTP	69	288	7
BRK	70	0	1
XHO	70	0	6	576
TAP	70	96	4
TAP	70	144	4
TAP	70	240	0
TAP	70	288	0
TAP	71	0	2
TAP	71	48	2
TAP	71	144	7
XST	71	192	7
SI_	71	192	7	96	48	2
SI_	71	192	7	96	48	4
XTP	71	288	7
XHO	72	0	1	432
BRK	72	0	6
TAP	72	96	3
TAP	72	144	3
TAP	72	240	7
TAP	72	288	7
TAP	73	0	5
TAP	73	48	5
TTP	73	192	0	C	0	M1
TTP	73	192	2	B	0	M1
TTP	73	192	3	B	0	M1
TTP	73	192	4	B	0	M1
TTP	73	192	5	B	0	M1
XTP	74	0	1
XTP	74	0	6
STR	74	96	1
SCR	74	96	1	96	48	3
TAP	74	96	4
TAP	74	192	6
TAP	74	288	4
TAP	74	336	3
TAP	75	0	6
TAP	75	48	3
STR	75	96	3
SUR	75	96	3	96	96	1
TAP	75	96	4
TAP	75	192	6
XTP	75	288	7
XTP	76	0	1
XTP	76	0	6
STR	76	96	1
SCR	76	96	1	96	48	3
TAP	76	96	4
TAP	76	192	6
TAP	76	288	4
TAP	76	336	3
TAP	77	0	6
TAP	77	48	3
STR	77	96	3
SUR	77	96	3	96	96	1
TAP	77	96	4
TAP	77	192	6
XTP	77	288	7
XST	78	0	4
SCR	78	0	4	96	96	0
STR	78	96	0
SCR	78	96	0	96	96	4
STR	78	192	4
SCR	78	192	4	96	96	0
STR	78	288	0
SCR	78	288	0	96	96	4
STR	79	0	4
SCR	79	0	4	96	96	0
STR	79	96	0
SUL	79	96	0	96	96	4
SUR	79	96	0	96	96	4
TAP	80	0	4
TAP	80	48	3
TAP	80	96	2
TAP	80	144	1
XTP	80	192	0
XTP	80	192	7
XTP	80	256	0
XTP	80	256	7
XTP	80	320	0
XTP	80	320	7
XST	81	0	1
SI_	81	0	1	96	48	4
TAP	81	48	1
STR	81	96	6
SI_	81	96	6	96	48	3
TAP	81	144	6
STR	81	192	0
SI_	81	192	0	96	48	4
TAP	81	240	0
STR	81	288	7
SCL	81	288	7	96	96	2
TAP	81	336	7
XTP	82	0	0
XTP	82	72	0
XTP	82	144	0
BRK	82	192	0
BRK	82	192	6
HLD	83	0	3	288
STR	83	0	4
SLL	83	0	4	96	576	7
HLD	84	0	0	768
TTP	85	0	6	E	0	M1
TTP	85	192	0	E	0	M1
TTP	86	0	2	E	0	M1
STR	86	288	3
SV_	86	288	3	96	240	6
HLD	87	0	3	288
STR	87	288	4
SV_	87	288	4	96	240	1
HLD	88	0	4	288
TTP	89	0	1	E	0	M1
TTP	89	0	1	B	0	M1
TTP	89	0	2	B	0	M1
TTP	89	0	3	E	0	M1
TTP	89	192	5	B	0	M1
TTP	89	192	5	E	0	M1
TTP	89	192	6	B	0	M1
TTP	89	192	7	E	0	M1
TTP	90	0	0	C	0	M1
TTP	90	0	2	E	0	M1
TTP	90	0	6	E	0	M1
TAP	90	288	3
TAP	90	288	4
XTP	91	0	0
XTP	91	0	2
TAP	91	96	3
STR	91	144	4
SI_	91	144	4	96	48	0
TAP	91	240	5
TAP	91	288	6
TAP	91	336	7
TAP	92	0	1
TAP	92	96	4
STR	92	144	3
SI_	92	144	3	96	48	7
TAP	92	240	2
TAP	92	288	1
TAP	92	336	0
STR	93	0	6
SCL	93	0	6	96	96	3
STR	93	96	3
SI_	93	96	3	96	96	7
STR	93	192	7
SCR	93	192	7	96	96	2
STR	93	288	2
SXR	93	288	2	96	192	6
XHO	94	0	0	192
TAP	94	240	7
TAP	94	288	0
STR	95	0	2
SCL	95	0	2	96	48	7
TAP	95	96	6
STR	95	144	6
SV_	95	144	6	96	48	3
TAP	95	240	0
TAP	95	288	1
STR	96	0	5
SCR	96	0	5	96	48	0
TAP	96	96	1
STR	96	144	1
SV_	96	144	1	96	48	4
TAP	96	240	7
TAP	96	288	6
TAP	97	0	3
STR	97	0	5
SI_	97	0	5	96	48	1
STR	97	96	7
SI_	97	96	7	96	48	3
STR	97	192	4
SI_	97	192	4	96	48	0
TAP	97	288	2
TAP	97	336	2
TAP	98	48	6
TAP	98	96	5
TAP	98	144	4
TAP	98	192	2
TAP	98	192	3
TAP	98	288	1
TAP	98	288	6
BST	99	0	0
SI_	99	0	0	96	48	4
TAP	99	48	7
XTP	99	96	0
TAP	99	144	7
TAP	99	192	3
TAP	99	240	4
TAP	99	288	5
TAP	99	336	6
STR	100	0	7
SI_	100	0	7	96	48	3
TAP	100	48	0
XTP	100	96	7
TAP	100	144	0
TAP	100	192	4
TAP	100	240	3
TAP	100	288	2
TAP	100	336	1
STR	101	0	0
SCR	101	0	0	96	96	3
STR	101	96	3
SI_	101	96	3	96	96	7
STR	101	192	7
SCL	101	192	7	96	96	4
STR	101	288	4
SXL	101	288	4	96	192	0
XHO	102	0	6	192
TAP	102	240	6
TAP	102	288	7
TAP	102	336	0
BST	103	0	7
SI_	103	0	7	96	48	3
TAP	103	48	0
XTP	103	96	7
TAP	103	144	0
TAP	103	192	4
TAP	103	240	3
TAP	103	288	2
TAP	103	336	1
STR	104	0	0
SI_	104	0	0	96	48	4
TAP	104	48	7
XTP	104	96	0
TAP	104	144	7
TAP	104	192	3
TAP	104	240	4
TAP	104	288	2
TAP	104	288	5
STR	105	0	7
SI_	105	0	7	96	48	5
TAP	105	48	7
STR	105	96	1
SI_	105	96	1	96	48	3
TAP	105	144	1
TAP	105	192	4
TAP	105	240	4
TAP	105	288	0
TAP	105	336	0
XTP	106	0	7
XTP	106	12	6
XTP	106	24	5
XTP	106	36	4
XTP	106	48	3
XTP	106	60	2
XTP	106	72	1
XTP	106	84	0
XST	106	96	7
SLL	106	96	7	96	96	3
SLR	106	96	7	96	96	3
BRK	106	336	0
BRK	106	336	6
STR	107	48	1
SCR	107	48	1	96	96	5
TAP	107	96	5
STR	107	144	5
SI_	107	144	5	96	96	1
TAP	107	240	0
XTP	107	336	7
STR	108	48	6
SCL	108	48	6	96	96	2
TAP	108	96	2
STR	108	144	2
SI_	108	144	2	96	96	6
TAP	108	240	7
XTP	108	336	0
STR	109	48	1
SCR	109	48	1	96	96	5
TAP	109	96	5
STR	109	144	5
SI_	109	144	5	96	96	1
TAP	109	240	7
XST	109	336	7
SI_	109	336	7	96	48	3
TAP	110	48	0
TAP	110	96	1
TAP	110	144	2
TAP	110	192	3
TAP	110	240	4
TAP	110	288	5
BRK	110	336	0
BRK	110	336	6
STR	111	48	6
SCL	111	48	6	96	96	2
TAP	111	96	2
STR	111	144	2
SI_	111	144	2	96	96	6
TAP	111	240	7
XTP	111	336	0
STR	112	48	1
SCR	112	48	1	96	96	5
TAP	112	96	5
STR	112	144	5
SI_	112	144	5	96	96	1
TAP	112	240	0
XTP	112	336	7
STR	113	48	6
SCL	113	48	6	96	96	2
TAP	113	96	2
STR	113	144	2
SI_	113	144	2	96	96	6
TAP	113	240	7
BST	113	336	0
SI_	113	336	0	96	48	4
BST	114	48	5
SI_	114	48	5	96	48	1
BST	114	144	3
SI_	114	144	3	96	48	7
BRK	114	240	0
XTP	114	336	1
XTP	114	336	6
BST	115	0	0
SUL	115	0	0	96	192	7
BST	115	0	7
SCL	115	0	7	96	192	0
XTP	116	0	0
XTP	116	0	7
XTP	116	64	1
XTP	116	64	3
XTP	116	128	4
XTP	116	128	6
BRK	116	192	0
BRK	116	192	7

T_REC_TAP	331
T_REC_BRK	20
T_REC_XTP	78
T_REC_HLD	20
T_REC_XHO	8
T_REC_STR	92
T_REC_BST	10
T_REC_XST	22
T_REC_TTP	33
T_REC_THO	2
T_REC_SLD	132
T_REC_ALL	748
T_NUM_TAP	556
T_NUM_BRK	30
T_NUM_HLD	30
T_NUM_SLD	132
T_NUM_ALL	748
T_JUDGE_TAP	586
T_JUDGE_HLD	165
T_JUDGE_SLD	132
T_JUDGE_ALL	883
TTM_EACHPAIRS	97
TTM_SCR_TAP	278000
TTM_SCR_BRK	78000
TTM_SCR_HLD	30000
TTM_SCR_SLD	198000
TTM_SCR_ALL	584000
TTM_SCR_S	563600
TTM_SCR_SS	581000
TTM_RAT_ACV	10051

