VERSION	0.00.00	1.03.00
FES_MODE	0
BPM_DEF	222.000	222.000	222.000	222.000
MET_DEF	4	4
RESOLUTION	384
CLK_DEF	384
COMPATIBLE_CODE	MA2

BPM	0	0	222.000
MET	0	0	4	4

HLD	2	0	5	384
HLD	3	0	4	384
HLD	4	0	3	384
TAP	5	0	2
TAP	5	192	2
HLD	6	0	2	384
HLD	7	0	3	384
TAP	8	0	4
TAP	8	192	4
TAP	8	288	3
TAP	9	0	2
TAP	9	0	5
TAP	9	192	7
TAP	9	240	7
BRK	9	336	0
BRK	9	336	6
TAP	10	48	1
TAP	10	144	3
TAP	10	240	5
TAP	10	336	1
TAP	10	336	7
TAP	11	48	6
TAP	11	144	4
TAP	11	240	2
TAP	11	336	0
TAP	11	336	6
TAP	12	48	1
TAP	12	144	3
TAP	12	240	5
TAP	12	336	1
TAP	12	336	7
TAP	13	48	1
TAP	13	48	7
TAP	13	144	3
TAP	13	144	5
TAP	13	240	3
TAP	13	240	5
TAP	13	336	2
TAP	13	336	4
TAP	14	48	5
TAP	14	144	7
TAP	14	240	1
TAP	14	336	3
TAP	14	336	5
TAP	15	48	2
TAP	15	144	0
TAP	15	240	6
TAP	15	336	2
TAP	15	336	4
TAP	16	48	5
TAP	16	144	7
TAP	16	240	1
TAP	16	336	3
TAP	16	336	5
TAP	17	48	3
TAP	17	48	5
TAP	17	144	2
TAP	17	144	4
HLD	17	240	2	48
HLD	17	240	4	48
TAP	18	0	4
TAP	18	0	6
TAP	18	96	5
TAP	18	192	2
TAP	18	240	2
TAP	18	288	3
TAP	19	0	1
TAP	19	0	3
TAP	19	96	2
TAP	19	192	5
TAP	19	240	5
TAP	19	288	4
TAP	20	0	4
TAP	20	0	6
TAP	20	96	7
TAP	20	192	1
TAP	20	240	1
TAP	20	288	0
TAP	21	0	1
TAP	21	0	3
TAP	21	96	0
TAP	21	192	0
TAP	21	192	7
TAP	21	288	2
TAP	21	288	5
TAP	22	0	1
TAP	22	0	3
TAP	22	96	2
TAP	22	192	5
TAP	22	240	5
TAP	22	288	4
TAP	23	0	4
TAP	23	0	6
TAP	23	96	5
TAP	23	192	2
TAP	23	240	2
TAP	23	288	3
TAP	24	0	1
TAP	24	0	3
TAP	24	96	0
TAP	24	192	6
TAP	24	240	6
TAP	24	288	7
TAP	25	0	4
TAP	25	0	6
TAP	25	96	7
TAP	25	192	0
TAP	25	192	7
TAP	25	288	2
TAP	25	288	5
HLD	26	0	1	96
TAP	26	96	3
TAP	26	192	5
TAP	26	240	5
TAP	26	288	4
HLD	27	0	6	96
TAP	27	96	4
TAP	27	192	2
TAP	27	240	2
TAP	27	288	3
HLD	28	0	1	96
TAP	28	96	3
TAP	28	192	5
TAP	28	240	5
TAP	28	288	4
HLD	29	0	6	96
TAP	29	96	7
TAP	29	192	1
TAP	29	288	2
TAP	29	288	4
HLD	30	0	6	96
TAP	30	96	4
TAP	30	192	2
TAP	30	240	2
TAP	30	288	3
HLD	31	0	1	96
TAP	31	96	3
TAP	31	192	5
TAP	31	240	5
TAP	31	288	4
HLD	32	0	6	96
TAP	32	96	4
TAP	32	144	4
STR	32	240	7
SCL	32	240	7	96	240	0
TAP	34	0	4
TAP	34	96	3
TAP	34	192	2
TAP	34	288	1
STR	35	0	0
SI_	35	0	0	96	96	3
STR	35	192	6
SI_	35	192	6	96	48	4
TAP	36	0	3
TAP	36	96	4
TAP	36	192	5
TAP	36	288	6
STR	37	0	7
SI_	37	0	7	96	96	4
STR	37	192	1
SI_	37	192	1	96	48	3
TAP	38	0	4
TAP	38	96	3
TAP	38	192	2
TAP	38	288	1
STR	39	0	0
SI_	39	0	0	96	96	4
TAP	39	192	5
STR	39	288	6
SCL	39	288	6	96	384	0
TAP	41	192	3
TAP	41	192	4
TAP	42	0	4
TAP	42	96	3
TAP	42	192	2
TAP	42	288	1
STR	43	0	0
SV_	43	0	0	96	96	3
STR	43	192	7
SCL	43	192	7	96	96	4
TAP	44	0	3
TAP	44	96	4
TAP	44	192	5
TAP	44	288	6
STR	45	0	7
SV_	45	0	7	96	96	4
STR	45	192	0
SCR	45	192	0	96	96	3
TAP	46	0	4
TAP	46	96	3
TAP	46	192	2
TAP	46	288	1
TAP	47	0	0
TAP	47	0	7
TAP	47	96	1
TAP	47	96	6
TAP	47	192	2
TAP	47	192	5
STR	47	288	4
SUL	47	288	4	96	192	3
TTP	48	336	0	C	1	M1
TTP	48	336	1	B	0	M1
TTP	48	336	6	B	0	M1
TAP	49	288	3
TAP	49	288	4
HLD	50	0	5	96
TAP	50	96	4
TAP	50	144	4
TAP	50	240	7
TAP	50	288	7
HLD	51	0	2	96
TAP	51	96	3
TAP	51	144	3
TAP	51	240	0
TAP	51	288	0
HLD	52	0	6	96
HLD	52	96	4	96
HLD	52	192	3	96
HLD	52	288	1	96
TAP	53	0	7
TAP	53	240	0
TAP	53	288	0
STR	54	0	5
SCL	54	0	5	96	96	2
TAP	54	192	1
TAP	54	288	1
STR	55	0	2
SCR	55	0	2	96	96	5
TAP	55	192	6
TAP	55	288	6
STR	56	0	5
SCL	56	0	5	96	96	2
STR	56	192	1
SUR	56	192	1	96	288	3
TAP	57	288	3
TAP	57	288	4
HLD	58	0	2	96
TAP	58	96	3
TAP	58	144	3
TAP	58	240	0
TAP	58	288	0
HLD	59	0	5	96
TAP	59	96	4
TAP	59	144	4
TAP	59	240	7
TAP	59	288	7
HLD	60	0	1	96
HLD	60	96	3	96
HLD	60	192	4	96
HLD	60	288	6	96
TAP	61	0	0
TAP	61	240	7
TAP	61	288	7
STR	62	0	2
SCR	62	0	2	96	96	5
TAP	62	192	6
TAP	62	288	6
STR	63	0	5
SCL	63	0	5	96	96	2
TAP	63	192	1
TAP	63	288	1
STR	64	0	1
SI_	64	0	1	96	96	5
STR	64	192	6
SI_	64	192	6	96	96	2
TAP	65	0	0
TAP	65	96	0
TAP	65	192	1
TAP	65	192	5
TAP	65	240	1
TAP	65	240	5
TAP	65	336	2
TAP	65	336	6
TAP	66	0	2
HLD	66	0	6	96
TAP	66	96	4
HLD	66	144	4	96
TAP	66	240	7
HLD	66	288	7	96
TAP	67	0	0
HLD	67	48	0	96
TAP	67	144	3
TAP	67	192	3
TAP	67	288	4
HLD	68	0	1	96
TAP	68	0	5
TAP	68	96	3
HLD	68	144	3	96
TAP	68	240	0
HLD	68	288	0	96
TAP	69	0	7
HLD	69	48	7	96
TAP	69	144	4
TAP	69	192	4
TAP	69	288	3
TAP	70	0	3
HLD	70	0	5	96
TAP	70	96	7
HLD	70	144	7	96
TAP	70	240	3
HLD	70	288	3	96
TAP	71	0	1
HLD	71	48	1	96
TAP	71	144	2
TAP	71	192	2
TAP	71	288	3
HLD	72	0	2	96
TAP	72	0	4
TAP	72	96	0
HLD	72	144	0	96
TAP	72	240	4
HLD	72	288	4	96
TAP	73	0	6
HLD	73	48	6	96
TAP	73	144	0
BRK	73	192	0
TAP	74	0	3
TAP	74	0	4
TAP	74	96	2
TAP	74	96	3
TAP	74	192	1
STR	74	288	1
SUR	74	288	1	96	288	3
TAP	76	0	3
TAP	76	0	4
TAP	76	96	4
TAP	76	96	5
TAP	76	192	6
STR	76	288	6
SUL	76	288	6	96	288	4
TAP	78	0	3
TAP	78	0	4
TAP	78	96	2
TAP	78	96	3
TAP	78	192	1
STR	78	288	0
SCR	78	288	0	96	144	3
STR	78	288	7
SCL	78	288	7	96	144	4
TAP	79	192	1
TAP	79	192	6
TAP	79	288	3
TAP	79	288	4
TAP	80	0	3
TAP	80	0	4
TAP	80	96	2
TAP	80	96	5
TAP	80	192	2
TAP	80	192	5
TAP	80	288	1
TAP	80	288	6
TAP	81	0	1
TAP	81	0	6
TAP	81	96	0
TAP	81	96	7
TAP	81	192	0
TAP	81	192	7
TAP	81	288	0
TAP	81	288	7
THO	82	0	0	192	C	0	M1
HLD	83	0	7	768
TTP	84	0	6	B	0	M1
TTP	84	192	5	E	0	M1
HLD	85	0	0	768
TTP	86	0	1	B	0	M1
TTP	86	192	3	E	0	M1
HLD	87	0	5	768
TTP	88	0	6	B	0	M1
TTP	88	192	5	E	0	M1
HLD	89	0	2	384
TTP	90	0	0	C	1	M1
TAP	90	288	0
TAP	90	288	7
HLD	91	0	2	96
TAP	91	96	3
TAP	91	144	3
TAP	91	240	7
TAP	91	288	0
TAP	91	288	7
HLD	92	0	5	96
TAP	92	96	4
TAP	92	144	4
TAP	92	240	0
TAP	92	288	0
TAP	92	288	7
HLD	93	0	1	96
HLD	93	96	3	96
HLD	93	192	4	96
HLD	93	288	6	96
TAP	94	0	0
TAP	94	240	7
TAP	94	288	7
STR	95	0	2
SCR	95	0	2	96	96	5
TAP	95	192	6
TAP	95	288	6
STR	96	0	5
SCL	96	0	5	96	96	2
TAP	96	192	1
TAP	96	288	1
STR	97	0	2
SCR	97	0	2	96	96	5
STR	97	192	6
SUL	97	192	6	96	288	4
TAP	98	192	2
TAP	98	288	2
TAP	99	0	0
TAP	99	0	1
TAP	99	96	2
TAP	99	96	3
TAP	99	192	4
TAP	99	192	5
TAP	99	288	6
TAP	99	288	7
TAP	100	0	0
TAP	100	0	1
TAP	100	96	2
TAP	100	96	3
TAP	100	192	4
TAP	100	192	5
TAP	100	288	6
TAP	100	288	7
TAP	101	0	6
TAP	101	0	7
TAP	101	96	2
TAP	101	96	3
TAP	101	192	0
TAP	101	192	1
TAP	101	288	4
TAP	101	288	5
HLD	102	0	1	192
HLD	102	0	6	192
TAP	102	288	1
TAP	102	288	6
STR	103	0	2
SI_	103	0	2	96	96	7
STR	103	192	5
SI_	103	192	5	96	96	0
HLD	104	0	1	96
HLD	104	96	3	96
HLD	104	192	4	96
TAP	104	288	6
HLD	105	0	6	96
HLD	105	96	4	96
HLD	105	192	3	96
HLD	105	288	1	96
XTP	106	0	7
TAP	106	192	0
TAP	106	240	0
BRK	106	336	1
BRK	106	336	7
TAP	107	48	6
TAP	107	96	6
TAP	107	144	4
TAP	107	240	2
TAP	107	336	0
TAP	107	336	6
TAP	108	48	1
TAP	108	96	1
TAP	108	144	3
TAP	108	240	5
TAP	108	336	1
TAP	108	336	7
TAP	109	48	6
TAP	109	96	6
TAP	109	144	4
TAP	109	240	2
TAP	109	336	0
TAP	109	336	6
TAP	110	48	0
TAP	110	48	6
TAP	110	144	2
TAP	110	144	4
TAP	110	240	2
TAP	110	240	4
TAP	110	336	3
TAP	110	336	5
TAP	111	48	6
TAP	111	96	6
TAP	111	144	7
TAP	111	240	1
TAP	111	336	2
TAP	111	336	4
TAP	112	48	1
TAP	112	96	1
TAP	112	144	0
TAP	112	240	6
TAP	112	336	3
TAP	112	336	5
TAP	113	48	6
TAP	113	96	6
TAP	113	144	7
TAP	113	240	1
TAP	113	336	1
TAP	113	336	4
TAP	114	48	1
TAP	114	48	4
TAP	114	144	3
TAP	114	144	6
TAP	114	240	3
TAP	114	240	6
TAP	114	336	2
TAP	114	336	4
HLD	115	0	2	288
HLD	115	0	4	288
XTP	116	0	0
XTP	116	0	7
XTP	116	64	1
XTP	116	64	6
XTP	116	128	2
XTP	116	128	5
XTP	116	192	3
XTP	116	192	4

T_REC_TAP	365
T_REC_BRK	5
T_REC_XTP	9
T_REC_HLD	63
T_REC_XHO	0
T_REC_STR	30
T_REC_BST	0
T_REC_XST	0
T_REC_TTP	10
T_REC_THO	1
T_REC_SLD	30
T_REC_ALL	513
T_NUM_TAP	414
T_NUM_BRK	5
T_NUM_HLD	64
T_NUM_SLD	30
T_NUM_ALL	513
T_JUDGE_TAP	419
T_JUDGE_HLD	218
T_JUDGE_SLD	30
T_JUDGE_ALL	667
TTM_EACHPAIRS	95
TTM_SCR_TAP	207000
TTM_SCR_BRK	13000
TTM_SCR_HLD	64000
TTM_SCR_SLD	45000
TTM_SCR_ALL	329000
TTM_SCR_S	318650
TTM_SCR_SS	328500
TTM_RAT_ACV	10015

