VERSION	0.00.00	1.03.00
FES_MODE	0
BPM_DEF	222.000	222.000	222.000	222.000
MET_DEF	4	4
RESOLUTION	384
CLK_DEF	384
COMPATIBLE_CODE	MA2

BPM	0	0	222.000
MET	0	0	4	4

XHO	2	0	5	384
HLD	3	0	4	384
HLD	4	0	3	384
XTP	5	0	2
TAP	6	0	1
TAP	6	192	1
TAP	7	0	0
TAP	7	192	0
TAP	8	0	7
TAP	8	96	7
XTP	8	192	0
XTP	8	192	7
XTP	9	0	1
XTP	9	0	6
XTP	10	0	0
XTP	10	96	0
XTP	10	192	0
TAP	11	0	1
TAP	11	96	1
TAP	11	192	1
TAP	12	0	2
TAP	12	96	2
TAP	12	192	2
XTP	13	0	2
XTP	13	0	3
XTP	13	192	3
XTP	13	192	4
TAP	14	0	5
TAP	14	96	5
TAP	14	192	5
TAP	15	0	6
TAP	15	96	6
TAP	15	192	6
TAP	16	0	7
TAP	16	96	7
TAP	16	192	7
XTP	17	0	1
XTP	17	0	6
XHO	18	0	5	384
TAP	19	0	4
TAP	19	192	3
TAP	19	192	4
HLD	20	0	2	384
TAP	21	0	3
TAP	21	192	3
TAP	21	192	4
HLD	22	0	5	384
TAP	23	0	4
TAP	23	192	3
TAP	24	0	2
TAP	24	192	2
XTP	25	0	1
XTP	25	0	3
TAP	26	0	1
TAP	26	96	1
TAP	26	192	1
TAP	27	0	2
TAP	27	192	2
TAP	27	192	3
TAP	28	0	4
TAP	28	96	4
TAP	28	192	4
XTP	29	0	3
XTP	29	0	5
TAP	30	0	6
TAP	30	96	6
TAP	30	192	6
TAP	31	0	7
TAP	31	96	7
TAP	31	192	7
TAP	32	0	0
TAP	32	96	0
XTP	32	192	0
XTP	32	192	7
XTP	33	0	1
XTP	33	0	6
STR	34	0	7
SCL	34	0	7	96	480	3
STR	36	0	2
SUL	36	0	2	96	480	5
XST	38	0	6
SCL	38	0	6	96	240	4
XST	39	0	3
SCL	39	0	3	96	240	1
XTP	40	0	0
XTP	40	192	0
XTP	41	0	0
STR	42	0	0
SCR	42	0	0	96	480	4
STR	44	0	5
SUR	44	0	5	96	480	2
TAP	46	0	1
TAP	46	192	1
TAP	47	0	0
TAP	47	192	0
HLD	48	0	7	144
TAP	48	144	0
TAP	48	240	0
BRK	48	336	1
BRK	48	336	6
TAP	50	0	0
TAP	50	96	0
TAP	50	192	1
TAP	50	288	1
TAP	51	0	2
XTP	51	192	2
XTP	51	192	3
TAP	52	0	4
TAP	52	96	4
TAP	52	192	5
TAP	52	288	5
TAP	53	0	6
XTP	53	192	6
XTP	53	192	7
TAP	54	0	5
TAP	54	96	5
TAP	54	192	5
TAP	55	0	4
TAP	55	96	4
TAP	55	192	4
TAP	56	0	2
TAP	56	0	3
TAP	56	96	2
TAP	56	96	3
TAP	56	192	2
TAP	56	192	3
XTP	57	0	1
XTP	57	0	4
TAP	58	0	7
TAP	58	96	7
TAP	58	192	6
TAP	58	288	6
TAP	59	0	5
XTP	59	192	4
XTP	59	192	5
TAP	60	0	3
TAP	60	96	3
TAP	60	192	2
TAP	60	288	2
TAP	61	0	1
XTP	61	192	0
XTP	61	192	1
TAP	62	0	2
TAP	62	96	2
TAP	62	192	2
TAP	62	192	3
TAP	63	0	4
TAP	63	96	4
TAP	63	192	3
TAP	63	192	4
TAP	64	0	2
TAP	64	0	5
TAP	64	96	2
TAP	64	96	5
TAP	64	192	2
TAP	64	192	5
XTP	65	0	1
XTP	65	0	6
STR	66	0	7
SCL	66	0	7	96	384	4
XTP	67	192	3
XTP	67	288	3
STR	68	0	3
SCL	68	0	3	96	384	0
XTP	69	192	7
XTP	69	288	7
STR	70	0	7
SI_	70	0	7	96	384	4
XTP	71	192	3
XTP	71	288	3
TAP	72	0	3
TAP	72	0	4
TAP	72	192	3
TAP	72	192	4
TAP	73	0	2
TAP	73	0	5
TAP	73	96	2
TAP	73	96	5
BRK	73	192	2
BRK	73	192	5
TTP	74	0	6	E	0	L1
TTP	74	192	5	B	0	L1
TTP	75	0	4	B	0	L1
TTP	76	0	3	B	0	L1
TTP	76	192	2	B	0	L1
TTP	77	0	2	E	0	L1
TTP	78	0	1	B	0	L1
TTP	78	192	0	C	0	L1
TTP	79	0	5	B	0	L1
TTP	79	192	4	B	0	L1
TTP	80	0	3	B	0	L1
TTP	80	192	2	B	0	L1
TTP	81	0	0	C	1	L1
XHO	83	0	2	768
HLD	85	0	3	768
HLD	87	0	4	1152
HLD	89	0	5	384
TAP	91	0	7
TAP	91	96	7
TAP	91	192	6
TAP	91	288	6
TAP	92	0	5
TAP	92	96	5
XTP	92	192	4
XTP	92	192	5
TAP	93	0	3
TAP	93	96	3
TAP	93	192	2
TAP	93	288	2
TAP	94	0	1
TAP	94	96	1
XTP	94	192	0
XTP	94	192	1
TAP	95	0	2
TAP	95	96	2
TAP	95	192	2
TAP	95	192	3
TAP	96	0	5
TAP	96	96	5
TAP	96	192	4
TAP	96	192	5
TAP	97	0	2
TAP	97	0	3
TAP	97	96	2
TAP	97	96	3
TAP	97	192	2
TAP	97	192	3
XTP	98	0	1
XTP	98	0	4
TAP	99	0	0
TAP	99	96	0
TAP	99	192	1
TAP	99	288	1
TAP	100	0	2
TAP	100	96	2
XTP	100	192	2
XTP	100	192	3
TAP	101	0	4
TAP	101	96	4
TAP	101	192	5
TAP	101	288	5
TAP	102	0	6
TAP	102	96	6
XTP	102	192	6
XTP	102	192	7
TAP	103	0	5
TAP	103	96	5
TAP	103	192	4
TAP	103	192	5
TAP	104	0	2
TAP	104	96	2
TAP	104	192	2
TAP	104	192	3
TAP	105	0	3
TAP	105	0	4
TAP	105	96	3
TAP	105	96	4
TAP	105	192	3
TAP	105	192	4
XTP	106	0	1
XTP	106	0	6
TAP	107	0	0
TAP	107	96	0
TAP	107	192	1
TAP	107	288	1
TAP	108	0	2
TAP	108	96	2
TAP	108	192	3
TAP	108	288	3
TAP	109	0	4
TAP	109	96	4
TAP	109	192	5
TAP	109	288	5
XTP	110	0	6
XTP	110	0	7
TAP	111	0	6
TAP	111	96	6
TAP	111	192	7
TAP	111	288	7
TAP	112	0	0
TAP	112	96	0
TAP	112	192	1
TAP	112	288	1
TAP	113	0	2
TAP	113	96	2
XST	113	192	3
SI_	113	192	3	96	288	0
XST	113	192	4
SI_	113	192	4	96	288	7
BRK	115	0	1
BRK	115	0	6
TTP	116	0	0	C	1	L1

T_REC_TAP	182
T_REC_BRK	6
T_REC_XTP	57
T_REC_HLD	8
T_REC_XHO	3
T_REC_STR	7
T_REC_BST	0
T_REC_XST	4
T_REC_TTP	14
T_REC_THO	0
T_REC_SLD	11
T_REC_ALL	292
T_NUM_TAP	264
T_NUM_BRK	6
T_NUM_HLD	11
T_NUM_SLD	11
T_NUM_ALL	292
T_JUDGE_TAP	270
T_JUDGE_HLD	115
T_JUDGE_SLD	11
T_JUDGE_ALL	396
TTM_EACHPAIRS	51
TTM_SCR_TAP	132000
TTM_SCR_BRK	15600
TTM_SCR_HLD	11000
TTM_SCR_SLD	16500
TTM_SCR_ALL	175100
TTM_SCR_S	169300
TTM_SCR_SS	174500
TTM_RAT_ACV	10034

