VERSION	0.00.00	1.03.00
FES_MODE	0
BPM_DEF	222.000	222.000	222.000	222.000
MET_DEF	4	4
RESOLUTION	384
CLK_DEF	384
COMPATIBLE_CODE	MA2

BPM	0	0	222.000
MET	0	0	4	4

XTP	10	0	0
XTP	10	192	0
XTP	11	0	0
XHO	12	0	0	384
XTP	14	0	7
XTP	14	192	7
XTP	15	0	7
XHO	16	0	7	384
TAP	18	0	0
TAP	19	0	0
TAP	20	0	1
TAP	20	192	1
TAP	21	0	1
TAP	22	0	2
TAP	23	0	2
TAP	24	0	3
TAP	24	192	3
TAP	25	0	3
TAP	26	0	4
TAP	27	0	4
TAP	28	0	5
TAP	28	192	5
TAP	29	0	5
TAP	30	0	6
TAP	31	0	6
TAP	32	0	7
TAP	32	192	7
TAP	33	0	0
TAP	33	0	7
STR	34	0	0
SI_	34	0	0	96	288	3
STR	36	0	7
SI_	36	0	7	96	288	4
TAP	38	0	3
TAP	38	192	3
TAP	39	0	4
TAP	39	192	4
HLD	40	0	3	384
TTP	42	0	2	B	0	L1
TTP	43	0	1	B	0	L1
TTP	44	0	0	B	0	L1
TTP	45	0	7	B	0	L1
TTP	46	0	6	B	0	L1
TTP	47	0	5	B	0	L1
THO	48	0	0	384	C	1	L1
TAP	50	0	7
TAP	50	192	7
TAP	51	0	7
TAP	52	0	6
TAP	52	192	6
BRK	53	0	6
TAP	54	0	5
TAP	54	192	5
TAP	55	0	4
TAP	55	192	4
TAP	56	0	3
TAP	56	192	3
XTP	57	0	3
XTP	57	0	4
TAP	58	0	3
TAP	58	192	3
TAP	59	0	3
TAP	60	0	2
TAP	60	192	2
BRK	61	0	2
TAP	62	0	1
TAP	62	192	1
TAP	63	0	0
TAP	63	192	0
TAP	64	0	7
TAP	64	192	7
XTP	65	0	0
XTP	65	0	7
STR	66	0	0
SI_	66	0	0	96	288	4
STR	68	0	7
SI_	68	0	7	96	288	3
STR	70	0	1
SI_	70	0	1	96	288	4
STR	72	0	6
SI_	72	0	6	96	288	3
TAP	74	0	2
TAP	75	0	2
TAP	75	0	3
TAP	76	0	3
TAP	77	0	3
TAP	77	0	4
TAP	78	0	5
TAP	79	0	4
TAP	79	0	5
TAP	80	0	3
TAP	80	0	4
TAP	80	192	3
TAP	80	192	4
XHO	81	0	3	384
XHO	81	0	4	384
TTP	83	0	5	B	0	L1
TTP	84	0	6	B	0	L1
TTP	85	0	7	B	0	L1
TTP	86	0	0	B	0	L1
TTP	87	0	1	B	0	L1
TTP	88	0	2	B	0	L1
THO	89	0	0	384	C	1	L1
TAP	91	0	7
TAP	91	96	7
TAP	91	192	7
HLD	92	0	7	192
TAP	93	0	6
TAP	93	96	6
TAP	93	192	6
BRK	94	0	6
TAP	95	0	5
TAP	95	192	5
TAP	96	0	4
TAP	96	192	4
TAP	97	0	3
TAP	97	96	4
TAP	97	192	3
XTP	98	0	2
XTP	98	0	5
TAP	99	0	3
TAP	99	96	3
TAP	99	192	3
HLD	100	0	3	192
TAP	101	0	2
TAP	101	96	2
TAP	101	192	2
BRK	102	0	2
TAP	103	0	1
TAP	103	192	1
TAP	104	0	0
TAP	104	192	0
TAP	105	0	0
TAP	105	0	7
TAP	105	96	0
TAP	105	96	7
TAP	105	192	0
TAP	105	192	7
TAP	106	0	1
TAP	106	0	6
TAP	107	0	0
TAP	107	192	0
TAP	108	0	7
TAP	108	192	7
STR	109	0	0
SI_	109	0	0	96	288	4
TAP	111	0	7
TAP	111	192	7
TAP	112	0	0
TAP	112	192	0
STR	113	0	7
SI_	113	0	7	96	288	3
XHO	115	0	3	192
XHO	115	0	4	192
TAP	116	0	3
TAP	116	0	4
BRK	116	192	2
BRK	116	192	5

T_REC_TAP	101
T_REC_BRK	6
T_REC_XTP	12
T_REC_HLD	3
T_REC_XHO	6
T_REC_STR	8
T_REC_BST	0
T_REC_XST	0
T_REC_TTP	12
T_REC_THO	2
T_REC_SLD	8
T_REC_ALL	158
T_NUM_TAP	133
T_NUM_BRK	6
T_NUM_HLD	11
T_NUM_SLD	8
T_NUM_ALL	158
T_JUDGE_TAP	139
T_JUDGE_HLD	72
T_JUDGE_SLD	8
T_JUDGE_ALL	219
TTM_EACHPAIRS	17
TTM_SCR_TAP	66500
TTM_SCR_BRK	15600
TTM_SCR_HLD	11000
TTM_SCR_SLD	12000
TTM_SCR_ALL	105100
TTM_SCR_S	101400
TTM_SCR_SS	104500
TTM_RAT_ACV	10057

