VERSION	0.00.00	1.03.00
FES_MODE	0
BPM_DEF	153.000	153.000	153.000	153.000
MET_DEF	4	4
RESOLUTION	384
CLK_DEF	384
COMPATIBLE_CODE	MA2

BPM	0	0	153.000
MET	0	0	4	4

THO	1	0	0	288	C	0	M1
HLD	2	0	6	768
TAP	2	96	4
TAP	2	240	4
TAP	2	288	4
TAP	3	96	4
TAP	3	240	4
TAP	3	288	4
HLD	4	0	1	768
TAP	4	96	3
TAP	4	240	3
TAP	4	288	3
TAP	5	96	3
TAP	5	240	3
TAP	5	288	3
TAP	6	0	6
TAP	6	96	3
TAP	6	96	5
TAP	6	192	1
TAP	6	288	2
TAP	6	288	4
TAP	7	0	6
TAP	7	96	4
TAP	7	96	5
TAP	7	192	1
TAP	7	288	2
TAP	7	288	3
TAP	8	0	4
TAP	8	48	4
TAP	8	96	3
TAP	8	144	3
XTP	8	192	4
XTP	8	216	3
XTP	8	240	5
XTP	8	264	2
XTP	8	288	6
XTP	8	312	1
XTP	8	336	7
XTP	8	360	0
XHO	9	0	7	192
BRK	9	192	0
TTP	9	288	0	C	1	M1
TTP	9	288	1	B	0	M1
TTP	9	288	2	B	0	M1
TTP	9	288	5	B	0	M1
TTP	9	288	6	B	0	M1
HLD	10	0	1	48
HLD	10	0	7	48
HLD	10	96	4	48
HLD	10	96	5	48
TAP	10	192	0
TAP	10	192	7
TAP	10	240	2
TAP	10	264	3
TAP	10	288	1
TAP	10	336	7
HLD	11	0	0	48
HLD	11	0	6	48
HLD	11	96	3	48
HLD	11	96	5	48
STR	11	192	6
SUR	11	192	6	96	48	2
STR	11	192	7
SCR	11	192	7	96	48	2
HLD	12	0	3	48
HLD	12	0	4	48
HLD	12	96	1	48
HLD	12	96	7	48
TAP	12	192	4
TAP	12	192	5
TAP	12	240	6
TAP	12	264	7
STR	12	288	5
SCR	12	288	5	96	96	2
TAP	12	336	0
HLD	13	0	0	96
TAP	13	192	3
TAP	13	192	4
TTP	13	288	6	B	0	M1
TTP	13	288	6	E	0	M1
TTP	13	336	2	B	0	M1
TTP	13	336	2	E	0	M1
TAP	14	0	7
TAP	14	24	0
TAP	14	48	7
HLD	14	96	2	48
HLD	14	96	3	48
TAP	14	192	0
TAP	14	192	7
TAP	14	240	5
TAP	14	264	4
TAP	14	288	6
TAP	14	336	0
HLD	15	0	1	48
HLD	15	0	7	48
HLD	15	96	2	48
HLD	15	96	4	48
STR	15	192	0
SCL	15	192	0	96	48	5
STR	15	192	1
SUL	15	192	1	96	48	5
HLD	16	0	3	48
HLD	16	0	4	48
HLD	16	96	0	48
HLD	16	96	6	48
TAP	16	192	2
TAP	16	192	3
TAP	16	240	1
TAP	16	264	0
STR	16	288	2
SCR	16	288	2	96	144	1
TAP	16	336	7
HLD	17	0	7	192
TTP	17	288	0	C	0	M1
HLD	18	0	5	72
HLD	18	72	4	72
TAP	18	144	3
TAP	18	192	3
TAP	18	288	2
TAP	18	288	3
HLD	19	0	2	72
HLD	19	72	3	72
TAP	19	144	4
TAP	19	192	4
TAP	19	288	3
TAP	19	288	4
HLD	20	0	5	72
HLD	20	72	4	72
TAP	20	144	3
TAP	20	192	3
TAP	20	288	2
TAP	20	288	3
TAP	21	0	1
TAP	21	48	1
TAP	21	96	3
TAP	21	192	6
TAP	21	240	6
TAP	21	288	4
HLD	22	0	2	72
HLD	22	72	3	72
TAP	22	144	4
TAP	22	192	4
TAP	22	288	4
TAP	22	288	5
HLD	23	0	5	72
HLD	23	72	4	72
TAP	23	144	3
TAP	23	192	3
TAP	23	288	3
TAP	23	288	4
TAP	23	336	2
TAP	24	0	2
TAP	24	96	5
TAP	24	144	5
TAP	24	240	1
TAP	24	288	1
TAP	24	336	3
TAP	25	48	6
TAP	25	96	6
TAP	25	144	4
TTP	25	240	6	E	0	M1
TTP	25	288	2	E	0	M1
TAP	26	0	3
TAP	26	0	4
XTP	26	72	5
XTP	26	96	4
TAP	26	144	3
TAP	26	144	6
TAP	26	192	3
TAP	26	192	6
TAP	26	288	4
TAP	26	288	5
TAP	26	336	3
TAP	27	0	2
TAP	27	0	4
XTP	27	72	2
XTP	27	96	3
TAP	27	144	1
TAP	27	144	4
TAP	27	192	1
TAP	27	192	4
TAP	27	288	2
TAP	27	288	3
TAP	27	336	4
TAP	28	0	3
TAP	28	0	5
XTP	28	72	5
XTP	28	96	4
TAP	28	144	3
TAP	28	144	6
TAP	28	192	3
HLD	28	192	6	96
HLD	28	288	7	96
STR	29	0	0
SI_	29	0	0	96	48	4
TAP	29	48	0
TAP	29	96	3
STR	29	192	7
SI_	29	192	7	96	48	3
TAP	29	240	7
TAP	29	288	4
TAP	30	0	2
TAP	30	0	4
XTP	30	72	6
XTP	30	96	4
TAP	30	144	3
TAP	30	144	5
TAP	30	192	3
TAP	30	192	5
TAP	30	288	4
TAP	30	288	6
TAP	30	336	3
TAP	31	0	2
TAP	31	0	4
XTP	31	72	1
XTP	31	96	3
TAP	31	144	2
TAP	31	144	4
TAP	31	192	2
TAP	31	192	4
TAP	31	288	1
TAP	31	288	3
TAP	31	336	4
TAP	32	0	4
TAP	32	0	5
TAP	32	48	6
TAP	32	96	2
TAP	32	96	3
TAP	32	144	1
TAP	32	192	4
TAP	32	216	3
TAP	32	240	4
TAP	32	264	3
TAP	32	288	5
TAP	32	312	2
TAP	32	336	5
THO	33	0	0	96	C	1	M1
STR	33	192	0
SI_	33	192	0	96	48	3
STR	33	192	7
SI_	33	192	7	96	48	4
BRK	33	288	0
BRK	33	288	7
TAP	34	0	1
TAP	34	0	6
XTP	34	72	7
XST	34	96	0
SI_	34	96	0	96	48	4
XTP	34	144	0
STR	34	192	6
SI_	34	192	6	96	48	1
SI_	34	192	6	96	48	3
TAP	34	288	6
TAP	35	0	1
TAP	35	0	3
XTP	35	72	0
XST	35	96	7
SCR	35	96	7	96	96	5
XTP	35	144	7
HLD	35	192	1	96
TAP	35	336	0
HLD	36	0	6	96
TAP	36	0	7
TAP	36	96	4
TAP	36	144	3
TAP	36	192	0
HLD	36	192	1	96
TAP	36	288	3
TAP	36	336	4
TAP	37	0	6
TAP	37	0	7
TAP	37	48	0
TAP	37	48	5
TAP	37	96	1
TAP	37	96	4
STR	37	192	0
SI_	37	192	0	96	48	3
STR	37	192	7
SI_	37	192	7	96	48	4
BRK	37	288	0
BRK	37	288	7
TAP	38	0	1
TAP	38	0	6
XTP	38	72	0
XST	38	96	7
SI_	38	96	7	96	48	3
XTP	38	144	7
STR	38	192	1
SI_	38	192	1	96	48	4
SI_	38	192	1	96	48	6
TAP	38	288	1
TAP	39	0	4
TAP	39	0	6
XTP	39	72	7
XST	39	96	0
SUL	39	96	0	96	72	2
XTP	39	144	0
HLD	39	192	5	96
TAP	39	336	5
TAP	40	0	3
TAP	40	0	4
TAP	40	48	6
TAP	40	72	7
TAP	40	96	6
TAP	40	144	0
TAP	40	144	5
TAP	40	192	3
TAP	40	192	4
TAP	40	240	1
TAP	40	264	0
STR	40	288	1
SCL	40	288	1	96	120	2
TAP	40	336	2
TAP	40	336	7
XTP	41	0	1
STR	41	192	3
SI_	41	192	3	96	48	0
STR	41	192	4
SI_	41	192	4	96	48	7
BRK	41	288	3
BRK	41	288	4
TAP	42	0	1
TAP	42	0	6
XTP	42	72	3
XST	42	96	4
SI_	42	96	4	96	48	0
XTP	42	144	4
STR	42	192	2
SI_	42	192	2	96	48	5
SI_	42	192	2	96	48	7
TAP	42	288	2
TAP	43	0	5
TAP	43	0	7
XTP	43	72	4
XST	43	96	3
SCR	43	96	3	96	96	1
XTP	43	144	3
HLD	43	192	6	96
TAP	43	336	7
TAP	44	0	0
HLD	44	0	1	96
TAP	44	96	3
TAP	44	144	4
HLD	44	192	6	96
TAP	44	192	7
TAP	44	288	4
TAP	44	336	3
TAP	45	0	0
TAP	45	0	1
TAP	45	48	2
TAP	45	48	7
TAP	45	96	3
TAP	45	96	6
STR	45	192	3
SI_	45	192	3	96	48	0
STR	45	192	4
SI_	45	192	4	96	48	7
BRK	45	288	3
BRK	45	288	4
TAP	46	0	1
TAP	46	0	6
XTP	46	72	4
XST	46	96	3
SI_	46	96	3	96	48	7
XTP	46	144	3
STR	46	192	5
SI_	46	192	5	96	48	0
SI_	46	192	5	96	48	2
TAP	46	288	5
TAP	47	0	0
TAP	47	0	2
XTP	47	72	3
XST	47	96	4
SUL	47	96	4	96	72	6
XTP	47	144	4
HLD	47	192	1	96
TAP	47	336	1
TAP	48	0	0
TAP	48	0	7
TAP	48	48	1
TAP	48	48	6
TAP	48	96	2
TAP	48	96	5
TAP	48	144	3
TAP	48	144	4
XTP	48	192	4
XTP	48	216	3
XTP	48	240	5
XTP	48	264	2
XTP	48	288	6
XTP	48	312	1
XTP	48	336	7
XTP	48	360	0
HLD	49	0	7	192
THO	49	192	0	96	C	0	M1
STR	50	0	1
SCR	50	0	1	96	96	5
STR	50	0	5
SLR	50	0	5	96	96	1
TTP	50	240	3	B	0	M1
TTP	50	240	3	E	0	M1
TTP	50	288	7	B	0	M1
TTP	50	288	7	E	0	M1
STR	51	0	1
SCR	51	0	1	96	48	4
STR	51	0	5
SUL	51	0	5	96	48	0
XTP	51	192	6
XTP	51	192	7
XTP	51	264	5
XTP	51	264	6
XTP	51	336	4
XTP	51	336	5
STR	52	0	0
SLL	52	0	0	96	96	1
STR	52	0	4
SLR	52	0	4	96	96	3
TTP	52	240	2	B	0	M1
TTP	52	240	3	E	0	M1
TTP	52	288	6	B	0	M1
TTP	52	288	7	E	0	M1
STR	53	0	0
SUR	53	0	0	96	48	4
STR	53	0	4
SUR	53	0	4	96	48	0
XTP	53	192	0
XTP	53	192	1
XTP	53	264	1
XTP	53	264	2
XTP	53	336	2
XTP	53	336	3
STR	54	0	4
SUR	54	0	4	96	48	0
STR	54	0	5
SUR	54	0	5	96	48	1
TTP	54	192	2	B	0	M1
TTP	54	192	2	E	0	M1
TTP	54	264	6	B	0	M1
TTP	54	264	6	E	0	M1
TTP	54	336	4	B	0	M1
TTP	54	336	4	E	0	M1
STR	55	0	0
SUL	55	0	0	96	48	4
SUR	55	0	0	96	48	4
XTP	55	192	3
XTP	55	192	4
XTP	55	264	6
XTP	55	264	7
XTP	55	336	0
XTP	55	336	1
STR	56	0	2
SLR	56	0	2	96	144	0
STR	56	0	6
SLL	56	0	6	96	144	0
TTP	57	0	5	B	0	M1
TTP	57	0	5	E	0	M1
TTP	57	0	6	B	0	M1
TTP	57	96	1	B	0	M1
TTP	57	96	1	E	0	M1
TTP	57	96	2	B	0	M1
TTP	57	192	0	E	0	M1
THO	57	192	0	96	C	0	M1
TTP	57	192	4	E	0	M1
TAP	58	0	4
TAP	58	0	5
TAP	58	96	3
TAP	58	144	3
HLD	58	192	4	72
HLD	58	264	2	72
TAP	58	336	3
TAP	59	0	2
TAP	59	0	3
TAP	59	96	4
TAP	59	144	4
HLD	59	192	3	72
HLD	59	264	5	72
TAP	59	336	4
TAP	60	0	5
TAP	60	48	5
TAP	60	96	3
TAP	60	144	3
HLD	60	192	4	72
HLD	60	264	2	72
TAP	60	336	3
TAP	61	0	2
TAP	61	48	2
TAP	61	96	4
TAP	61	144	4
HLD	61	192	3	72
HLD	61	264	5	72
TAP	61	336	4
TAP	62	0	3
TAP	62	48	3
TAP	62	96	2
TAP	62	144	2
TAP	62	192	1
TAP	62	240	1
TAP	62	288	0
TAP	62	336	0
TAP	63	0	7
TAP	63	48	7
TAP	63	96	6
TAP	63	144	6
TAP	63	192	5
TAP	63	240	5
TAP	63	288	4
TAP	63	336	4
TAP	64	0	3
TAP	64	24	4
TAP	64	48	3
TAP	64	72	4
TAP	64	96	2
TAP	64	120	5
TAP	64	144	2
TAP	64	168	5
TAP	64	192	1
TAP	64	216	6
TAP	64	240	1
TAP	64	264	6
TAP	64	288	0
TAP	64	312	7
TAP	64	336	0
TAP	64	360	7
HLD	65	0	0	96
BRK	65	96	7
STR	65	192	0
SI_	65	192	0	96	48	4
STR	65	192	7
SI_	65	192	7	96	48	3
BRK	65	288	0
BRK	65	288	7
TAP	66	0	2
TAP	66	0	5
XTP	66	72	7
XST	66	96	1
SV_	66	96	1	96	48	4
XTP	66	144	1
STR	66	192	0
SI_	66	192	0	96	48	3
SI_	66	192	0	96	48	5
TAP	66	288	0
TAP	67	0	4
TAP	67	0	6
XTP	67	72	1
XST	67	96	7
SCL	67	96	7	96	96	2
XTP	67	144	7
HLD	67	192	0	96
TAP	67	336	1
HLD	68	0	2	96
TAP	68	0	4
TAP	68	96	7
TAP	68	144	6
TAP	68	192	3
HLD	68	192	5	96
TAP	68	288	0
TAP	68	336	1
TAP	69	0	2
TAP	69	0	3
TAP	69	48	1
TAP	69	48	4
TAP	69	96	0
TAP	69	96	5
STR	69	192	0
SI_	69	192	0	96	48	4
STR	69	192	7
SI_	69	192	7	96	48	3
BRK	69	288	0
BRK	69	288	7
TAP	70	0	2
TAP	70	0	5
XTP	70	72	0
XST	70	96	6
SV_	70	96	6	96	48	3
XTP	70	144	6
STR	70	192	7
SI_	70	192	7	96	48	2
SI_	70	192	7	96	48	4
TAP	70	288	7
TAP	71	0	1
TAP	71	0	3
XTP	71	72	7
STR	71	96	1
SUL	71	96	1	96	72	3
XTP	71	144	1
HLD	71	192	5	96
TAP	71	336	5
TAP	72	0	3
TAP	72	0	4
TAP	72	48	6
TAP	72	72	7
TAP	72	96	6
TAP	72	144	0
TAP	72	144	5
TAP	72	192	3
TAP	72	192	4
TAP	72	240	1
TAP	72	264	0
STR	72	288	1
SCL	72	288	1	96	120	2
TAP	72	336	2
TAP	72	336	7
XTP	73	0	1
STR	73	192	3
SI_	73	192	3	96	48	7
STR	73	192	4
SI_	73	192	4	96	48	0
BRK	73	288	3
BRK	73	288	4
TAP	74	0	1
TAP	74	0	6
XTP	74	72	3
XST	74	96	5
SV_	74	96	5	96	48	0
XTP	74	144	5
STR	74	192	4
SI_	74	192	4	96	48	1
SI_	74	192	4	96	48	7
TAP	74	288	4
TAP	75	0	0
TAP	75	0	2
XTP	75	72	6
XST	75	96	3
SCL	75	96	3	96	96	6
XTP	75	144	3
HLD	75	192	4	96
TAP	75	336	4
TAP	76	0	3
HLD	76	0	5	96
TAP	76	96	0
TAP	76	144	1
HLD	76	192	2	96
TAP	76	192	4
TAP	76	288	7
TAP	76	336	6
TAP	77	0	4
TAP	77	0	5
TAP	77	48	3
TAP	77	48	6
TAP	77	96	2
TAP	77	96	7
STR	77	192	3
SSR	77	192	3	96	48	7
STR	77	192	4
SSL	77	192	4	96	48	0
BRK	77	288	3
BRK	77	288	4
TAP	78	0	1
TAP	78	0	6
XTP	78	72	4
XST	78	96	2
SV_	78	96	2	96	48	7
XTP	78	144	2
STR	78	192	3
SI_	78	192	3	96	48	0
SI_	78	192	3	96	48	6
TAP	78	288	3
TAP	79	0	5
TAP	79	0	7
XTP	79	72	1
STR	79	96	4
SUL	79	96	4	96	72	6
XTP	79	144	4
HLD	79	192	2	96
TAP	79	336	1
TAP	80	0	0
TAP	80	0	7
TAP	80	48	0
TAP	80	48	7
TAP	80	96	1
TAP	80	96	6
TAP	80	144	1
TAP	80	144	6
TAP	80	192	2
TAP	80	216	5
TAP	80	240	2
TAP	80	264	5
TAP	80	288	3
TAP	80	312	4
TAP	80	336	3
TAP	80	360	4
HLD	81	0	3	192
BRK	81	192	7
TTP	81	288	0	C	1	M1
TTP	81	288	1	B	0	M1
TTP	81	288	2	B	0	M1
TTP	81	288	5	B	0	M1
TTP	81	288	6	B	0	M1
HLD	82	0	0	48
HLD	82	0	6	48
HLD	82	96	2	48
HLD	82	96	3	48
TAP	82	192	0
TAP	82	192	7
TAP	82	240	5
TAP	82	264	4
TAP	82	288	6
TAP	82	336	0
HLD	83	0	1	48
HLD	83	0	7	48
HLD	83	96	2	48
HLD	83	96	4	48
STR	83	192	0
SCL	83	192	0	96	48	5
STR	83	192	1
SUL	83	192	1	96	48	5
HLD	84	0	3	48
HLD	84	0	4	48
HLD	84	96	0	48
HLD	84	96	6	48
TAP	84	192	2
TAP	84	192	3
TAP	84	240	1
TAP	84	264	0
STR	84	288	2
SCL	84	288	2	96	96	5
TAP	84	336	7
HLD	85	0	7	96
TAP	85	192	3
TAP	85	192	4
TTP	85	288	2	B	0	M1
TTP	85	288	2	E	0	M1
TTP	85	336	6	B	0	M1
TTP	85	336	6	E	0	M1
TAP	86	0	0
TAP	86	24	7
TAP	86	48	0
HLD	86	96	4	48
HLD	86	96	5	48
TAP	86	192	0
TAP	86	192	7
TAP	86	240	2
TAP	86	264	3
TAP	86	288	1
TAP	86	336	7
HLD	87	0	0	48
HLD	87	0	6	48
HLD	87	96	3	48
HLD	87	96	5	48
STR	87	192	6
SUR	87	192	6	96	48	2
STR	87	192	7
SCR	87	192	7	96	48	2
HLD	88	0	3	48
HLD	88	0	4	48
HLD	88	96	1	48
HLD	88	96	7	48
TAP	88	192	4
TAP	88	192	5
TAP	88	240	6
TAP	88	264	7
STR	88	288	5
SCL	88	288	5	96	144	6
TAP	88	336	0
HLD	89	0	0	192
TTP	89	288	0	C	0	M1

T_REC_TAP	374
T_REC_BRK	19
T_REC_XTP	78
T_REC_HLD	89
T_REC_XHO	1
T_REC_STR	55
T_REC_BST	0
T_REC_XST	14
T_REC_TTP	44
T_REC_THO	4
T_REC_SLD	78
T_REC_ALL	756
T_NUM_TAP	565
T_NUM_BRK	19
T_NUM_HLD	94
T_NUM_SLD	78
T_NUM_ALL	756
T_JUDGE_TAP	584
T_JUDGE_HLD	186
T_JUDGE_SLD	78
T_JUDGE_ALL	848
TTM_EACHPAIRS	151
TTM_SCR_TAP	282500
TTM_SCR_BRK	49400
TTM_SCR_HLD	94000
TTM_SCR_SLD	117000
TTM_SCR_ALL	542900
TTM_SCR_S	524800
TTM_SCR_SS	541000
TTM_RAT_ACV	10035

