VERSION	0.00.00	1.03.00
FES_MODE	0
BPM_DEF	153.000	153.000	153.000	153.000
MET_DEF	4	4
RESOLUTION	384
CLK_DEF	384
COMPATIBLE_CODE	MA2

BPM	0	0	153.000
MET	0	0	4	4

TAP	1	192	3
TAP	1	192	4
TAP	1	288	2
TAP	1	288	5
HLD	2	0	5	288
TAP	2	96	4
TAP	2	288	4
HLD	3	0	2	288
TAP	3	96	3
TAP	3	288	3
HLD	4	0	5	96
TAP	4	96	4
HLD	4	192	2	96
TAP	4	288	3
TAP	5	0	3
TAP	5	0	5
TAP	5	96	3
TAP	5	96	5
TAP	5	192	2
TAP	5	192	4
TAP	5	288	2
TAP	5	288	4
HLD	6	0	5	288
TAP	6	96	4
TAP	6	192	4
TAP	6	288	4
HLD	7	0	2	288
TAP	7	96	3
TAP	7	192	3
TAP	7	288	3
TAP	8	0	4
TAP	8	48	4
TAP	8	96	4
TAP	8	192	3
TAP	8	240	3
STR	8	288	3
SSR	8	288	3	96	192	7
BRK	9	288	1
BRK	9	288	5
XTP	10	0	6
XTP	10	0	7
TAP	10	96	0
TAP	10	96	1
HLD	10	192	1	72
HLD	10	264	2	72
TAP	10	336	3
TAP	11	0	3
TAP	11	0	4
TAP	11	96	6
TAP	11	96	7
TAP	11	192	0
TAP	11	192	5
TAP	12	0	2
TAP	12	0	3
TAP	12	96	0
TAP	12	96	1
HLD	12	192	7	72
HLD	12	264	6	72
TAP	12	336	5
STR	13	0	5
SI_	13	0	5	96	48	3
TAP	13	192	2
TAP	13	288	1
TAP	13	288	3
XTP	14	0	0
XTP	14	0	1
BRK	14	96	2
BRK	14	96	7
HLD	14	192	6	72
HLD	14	264	5	72
TAP	14	336	4
TAP	15	0	3
TAP	15	0	4
TAP	15	96	0
TAP	15	96	1
TAP	15	192	2
TAP	15	192	7
TAP	16	0	4
TAP	16	0	5
TAP	16	96	6
TAP	16	96	7
HLD	16	192	0	72
HLD	16	264	1	72
TAP	16	336	2
STR	17	0	2
SCR	17	0	2	96	96	5
BRK	17	288	1
BRK	17	288	6
TTP	18	0	2	B	0	M1
TTP	18	96	3	B	0	M1
TTP	18	192	2	E	0	M1
TTP	18	192	4	E	0	M1
TTP	18	288	0	C	0	M1
TTP	19	0	5	B	0	M1
TTP	19	96	4	B	0	M1
TTP	19	192	4	E	0	M1
TTP	19	192	6	E	0	M1
TAP	20	0	2
TAP	20	96	3
TAP	20	192	5
TAP	20	288	4
HLD	21	0	2	96
TAP	21	96	3
TAP	21	192	1
TAP	21	192	4
TAP	21	288	1
TAP	21	288	4
TTP	22	0	5	B	0	M1
TTP	22	96	4	B	0	M1
TTP	22	192	4	E	0	M1
TTP	22	192	6	E	0	M1
TTP	22	288	0	C	0	M1
TTP	23	0	2	B	0	M1
TTP	23	96	3	B	0	M1
TTP	23	192	2	E	0	M1
TTP	23	192	4	E	0	M1
TTP	24	0	6	E	0	M1
TTP	24	96	5	E	0	M1
TTP	24	96	7	E	0	M1
TTP	24	192	2	E	0	M1
TTP	24	288	1	E	0	M1
TTP	24	288	3	E	0	M1
HLD	25	0	7	288
BRK	25	240	0
BRK	25	288	0
TAP	26	0	4
TAP	26	0	6
TAP	26	96	5
TAP	26	144	5
TAP	26	192	4
TAP	26	288	3
TAP	27	0	2
TAP	27	0	3
TAP	27	96	1
TAP	27	192	0
TAP	27	192	2
TAP	28	0	1
TAP	28	0	3
TAP	28	96	2
TAP	28	192	4
TAP	28	192	6
TAP	28	288	5
TAP	29	0	2
TAP	29	48	2
TAP	29	96	2
TAP	29	96	3
TAP	29	192	5
TAP	29	240	5
TAP	29	288	4
TAP	29	288	5
TAP	30	0	1
TAP	30	0	3
TAP	30	96	2
TAP	30	144	2
TAP	30	192	3
TAP	30	288	4
TAP	31	0	4
TAP	31	0	5
TAP	31	96	6
TAP	31	192	5
TAP	31	192	7
STR	32	0	0
SI_	32	0	0	96	96	3
STR	32	192	7
SI_	32	192	7	96	96	4
HLD	33	0	3	192
TAP	33	192	4
BRK	33	288	1
BRK	33	288	6
XHO	34	0	7	72
HLD	34	72	6	72
TAP	34	144	5
TAP	34	192	4
TAP	34	192	5
TAP	34	288	3
TAP	34	288	4
HLD	35	0	2	72
HLD	35	72	1	72
TAP	35	144	0
TAP	35	192	1
TAP	35	192	7
TAP	35	336	6
STR	36	0	6
SI_	36	0	6	96	96	3
TAP	36	144	2
STR	36	192	2
SI_	36	192	2	96	96	7
TAP	36	336	6
TAP	37	0	6
TAP	37	96	0
TAP	37	96	5
TAP	37	192	2
TAP	37	192	3
BRK	37	288	1
BRK	37	288	4
XHO	38	0	0	72
HLD	38	72	1	72
TAP	38	144	2
TAP	38	192	2
TAP	38	192	3
TAP	38	288	3
TAP	38	288	4
HLD	39	0	5	72
HLD	39	72	6	72
TAP	39	144	7
BRK	39	192	0
BRK	39	192	6
TAP	39	336	0
TAP	39	336	4
HLD	40	0	0	96
HLD	40	0	4	96
TAP	40	144	1
TAP	40	144	5
HLD	40	192	1	96
HLD	40	192	5	96
TAP	40	336	2
TAP	40	336	6
STR	41	0	2
SCL	41	0	2	96	96	7
STR	41	0	6
SCL	41	0	6	96	96	3
BRK	41	288	1
BRK	41	288	5
XHO	42	0	6	72
HLD	42	72	5	72
TAP	42	144	4
TAP	42	192	3
STR	42	192	4
SI_	42	192	4	96	48	6
HLD	43	0	7	72
HLD	43	72	6	72
TAP	43	144	5
TAP	43	192	4
STR	43	192	5
SI_	43	192	5	96	48	3
TAP	43	336	2
STR	44	0	2
SI_	44	0	2	96	96	7
TAP	44	144	6
STR	44	192	6
SI_	44	192	6	96	96	3
TAP	44	336	2
TAP	45	0	2
TAP	45	96	1
TAP	45	96	4
TAP	45	192	6
TAP	45	192	7
BRK	45	288	0
BRK	45	288	5
XHO	46	0	1	72
HLD	46	72	2	72
TAP	46	144	3
STR	46	192	3
SI_	46	192	3	96	48	1
TAP	46	192	4
HLD	47	0	0	72
HLD	47	72	1	72
TAP	47	144	2
BRK	47	192	1
BRK	47	192	3
TAP	47	336	3
TAP	47	336	6
HLD	48	0	3	96
HLD	48	0	6	96
TAP	48	144	1
TAP	48	144	4
HLD	48	192	1	96
HLD	48	192	4	96
STR	48	336	0
SSL	48	336	0	96	144	4
TAP	48	336	7
TAP	49	0	0
TAP	49	0	7
BRK	49	288	2
BRK	49	288	6
HLD	50	0	5	192
TTP	50	192	4	B	0	M1
TTP	50	288	4	E	0	M1
TTP	50	288	6	E	0	M1
HLD	51	0	2	192
TTP	51	192	3	B	0	M1
TTP	51	288	2	E	0	M1
TTP	51	288	4	E	0	M1
HLD	52	0	5	192
TTP	52	192	4	B	0	M1
TTP	52	288	4	E	0	M1
TTP	52	288	6	E	0	M1
TTP	53	0	0	B	0	M1
TTP	53	0	7	B	0	M1
TTP	53	96	3	B	0	M1
TTP	53	96	4	B	0	M1
TTP	53	192	0	C	1	M1
HLD	54	0	1	192
TTP	54	192	2	B	0	M1
TTP	54	288	1	E	0	M1
TTP	54	288	3	E	0	M1
HLD	55	0	6	192
TTP	55	192	5	B	0	M1
TTP	55	288	5	E	0	M1
TTP	55	288	7	E	0	M1
HLD	56	0	1	192
TTP	56	192	2	B	0	M1
TTP	56	288	1	E	0	M1
TTP	56	288	3	E	0	M1
TTP	57	0	5	B	0	M1
TTP	57	0	6	B	0	M1
TTP	57	96	1	B	0	M1
TTP	57	96	2	B	0	M1
TTP	57	192	0	C	1	M1
TTP	57	192	0	E	0	M1
TTP	57	192	4	E	0	M1
TAP	58	0	5
TAP	58	96	5
TAP	58	192	5
TAP	58	288	4
TAP	58	288	6
TAP	59	0	2
TAP	59	96	2
TAP	59	192	2
TAP	59	288	1
TAP	59	288	3
TAP	60	0	2
TAP	60	96	3
TAP	60	192	4
TAP	60	288	4
TAP	60	288	6
TAP	61	0	5
TAP	61	96	4
TAP	61	192	3
TAP	61	288	1
TAP	61	288	3
TAP	62	0	2
TAP	62	48	2
TAP	62	96	2
TAP	62	192	4
TAP	62	240	4
TAP	62	288	4
TAP	63	0	3
TAP	63	48	3
TAP	63	96	3
TAP	63	192	5
TAP	63	240	5
TAP	63	288	5
TAP	64	0	0
TAP	64	0	7
TAP	64	48	0
TAP	64	48	7
TAP	64	96	0
TAP	64	96	7
TAP	64	144	0
TAP	64	144	7
TAP	64	192	1
TAP	64	192	6
TAP	64	240	1
TAP	64	240	6
TAP	64	288	1
TAP	64	288	6
TTP	65	0	0	C	1	M1
TTP	65	0	2	E	0	M1
TTP	65	0	6	E	0	M1
BRK	65	288	1
BRK	65	288	6
XHO	66	0	5	72
HLD	66	72	4	72
TAP	66	144	3
STR	66	192	2
SI_	66	192	2	96	48	7
TAP	66	192	3
XHO	67	0	4	72
HLD	67	72	5	72
TAP	67	144	6
STR	67	192	6
SI_	67	192	6	96	48	2
TAP	67	192	7
TAP	67	336	1
STR	68	0	1
SCL	68	0	1	96	96	6
TAP	68	144	5
STR	68	192	5
SCL	68	192	5	96	96	2
TAP	68	336	1
TAP	69	0	1
TAP	69	96	0
TAP	69	96	5
TAP	69	192	6
TAP	69	192	7
BRK	69	288	1
BRK	69	288	4
XHO	70	0	2	72
HLD	70	72	3	72
TAP	70	144	4
TAP	70	192	4
STR	70	192	5
SI_	70	192	5	96	48	0
TAP	70	288	1
XHO	71	0	3	72
HLD	71	72	2	72
TAP	71	144	1
BRK	71	192	0
BRK	71	192	4
TAP	71	336	2
TAP	71	336	6
HLD	72	0	2	96
HLD	72	0	6	96
TAP	72	144	3
TAP	72	144	7
HLD	72	192	3	96
HLD	72	192	7	96
TAP	72	336	0
TAP	72	336	4
STR	73	0	0
SCL	73	0	0	96	96	5
STR	73	0	4
SCL	73	0	4	96	96	1
BRK	73	288	3
BRK	73	288	7
XHO	74	0	6	72
HLD	74	72	5	72
TAP	74	144	4
STR	74	192	3
SI_	74	192	3	96	48	7
TAP	74	192	4
XHO	75	0	0	72
HLD	75	72	1	72
TAP	75	144	2
STR	75	192	2
SI_	75	192	2	96	48	5
TAP	75	192	3
TAP	75	336	6
STR	76	0	6
SCR	76	0	6	96	96	1
TAP	76	144	2
STR	76	192	2
SCR	76	192	2	96	96	5
TAP	76	336	6
TAP	77	0	6
TAP	77	96	2
TAP	77	96	7
TAP	77	192	0
TAP	77	192	1
BRK	77	288	3
BRK	77	288	6
XHO	78	0	1	72
HLD	78	72	2	72
TAP	78	144	3
TAP	78	192	3
STR	78	192	4
SI_	78	192	4	96	48	0
XHO	79	0	7	72
HLD	79	72	6	72
TAP	79	144	5
BRK	79	192	0
BRK	79	192	4
TAP	79	336	3
TAP	79	336	6
HLD	80	0	3	96
HLD	80	0	6	96
TAP	80	144	1
TAP	80	144	4
HLD	80	192	1	96
HLD	80	192	4	96
TAP	80	336	0
STR	80	336	7
SF_	80	336	7	96	144	3
TAP	81	0	0
TAP	81	0	7
BRK	81	288	1
BRK	81	288	5
XTP	82	0	0
XTP	82	0	1
TAP	82	96	6
TAP	82	96	7
HLD	82	192	6	72
HLD	82	264	5	72
TAP	82	336	4
TAP	83	0	3
TAP	83	0	4
TAP	83	96	0
TAP	83	96	1
TAP	83	192	2
TAP	83	192	7
TAP	84	0	4
TAP	84	0	5
TAP	84	96	6
TAP	84	96	7
HLD	84	192	0	72
HLD	84	264	1	72
TAP	84	336	2
STR	85	0	2
SI_	85	0	2	96	48	4
TAP	85	192	5
TAP	85	288	4
TAP	85	288	6
XTP	86	0	6
XTP	86	0	7
BRK	86	96	0
BRK	86	96	5
HLD	86	192	1	72
HLD	86	264	2	72
TAP	86	336	3
TAP	87	0	3
TAP	87	0	4
TAP	87	96	6
TAP	87	96	7
TAP	87	192	0
TAP	87	192	5
TAP	88	0	2
TAP	88	0	3
TAP	88	96	0
TAP	88	96	1
HLD	88	192	7	72
HLD	88	264	6	72
TAP	88	336	5
BST	89	0	5
SCL	89	0	5	96	96	2
TTP	89	288	0	C	1	M1
TTP	89	288	1	B	0	M1
TTP	89	288	6	B	0	M1

T_REC_TAP	273
T_REC_BRK	38
T_REC_XTP	8
T_REC_HLD	67
T_REC_XHO	12
T_REC_STR	29
T_REC_BST	1
T_REC_XST	0
T_REC_TTP	60
T_REC_THO	0
T_REC_SLD	30
T_REC_ALL	518
T_NUM_TAP	370
T_NUM_BRK	39
T_NUM_HLD	79
T_NUM_SLD	30
T_NUM_ALL	518
T_JUDGE_TAP	409
T_JUDGE_HLD	192
T_JUDGE_SLD	30
T_JUDGE_ALL	631
TTM_EACHPAIRS	121
TTM_SCR_TAP	185000
TTM_SCR_BRK	101400
TTM_SCR_HLD	79000
TTM_SCR_SLD	45000
TTM_SCR_ALL	410400
TTM_SCR_S	394350
TTM_SCR_SS	406500
TTM_RAT_ACV	10095

