VERSION	0.00.00	1.03.00
FES_MODE	0
BPM_DEF	153.000	153.000	153.000	153.000
MET_DEF	4	4
RESOLUTION	384
CLK_DEF	384
COMPATIBLE_CODE	MA2

BPM	0	0	153.000
MET	0	0	4	4

TTP	2	0	6	B	0	L1
TTP	2	192	4	B	0	L1
TTP	3	0	2	B	0	L1
TTP	4	0	1	B	0	L1
TTP	4	192	3	B	0	L1
TTP	5	0	5	B	0	L1
TTP	6	0	6	B	0	L1
TTP	6	192	4	B	0	L1
TTP	7	0	3	B	0	L1
TTP	7	192	1	B	0	L1
TTP	8	0	0	B	0	L1
TTP	8	192	7	B	0	L1
TTP	9	0	0	C	1	L1
TAP	10	0	1
TAP	10	96	1
XTP	10	192	0
XTP	10	192	1
TAP	11	0	6
TAP	11	96	6
XTP	11	192	6
XTP	11	192	7
TAP	12	0	1
TAP	12	96	1
TAP	12	192	0
TAP	12	288	0
TAP	13	0	7
TAP	13	96	7
XTP	13	192	0
XTP	13	192	6
TAP	14	0	6
TAP	14	96	6
XTP	14	192	6
XTP	14	192	7
TAP	15	0	1
TAP	15	96	1
XTP	15	192	0
XTP	15	192	1
TAP	16	0	6
TAP	16	96	6
TAP	16	192	7
TAP	16	288	7
TAP	17	0	0
TAP	17	96	0
TAP	17	96	7
BRK	17	192	1
BRK	17	192	6
HLD	18	0	5	288
TAP	18	288	4
HLD	19	0	3	288
TAP	19	288	4
HLD	20	0	5	288
TAP	20	288	4
TAP	21	0	3
TAP	21	96	2
XTP	21	192	2
XTP	21	192	3
HLD	22	0	2	288
TAP	22	288	3
HLD	23	0	4	288
TAP	23	288	3
TAP	24	0	2
TAP	24	96	2
TAP	24	192	3
TAP	24	288	3
TAP	25	0	4
TAP	25	96	5
XTP	25	192	4
XTP	25	192	6
HLD	26	0	5	192
TAP	26	192	4
TAP	26	288	4
HLD	27	0	3	192
TAP	27	192	4
TAP	27	288	4
HLD	28	0	5	192
TAP	28	192	4
TAP	28	288	4
TAP	29	0	3
TAP	29	96	2
XTP	29	192	1
XTP	29	192	3
HLD	30	0	2	192
TAP	30	192	3
TAP	30	288	3
HLD	31	0	4	192
TAP	31	192	3
TAP	31	288	3
TAP	32	0	2
TAP	32	96	2
TAP	32	192	1
TAP	32	288	1
TAP	33	0	0
TAP	33	96	0
TAP	33	96	7
BRK	33	192	1
BRK	33	192	6
TAP	34	0	1
TAP	34	96	1
TAP	34	192	0
TAP	34	192	1
TAP	34	288	0
TAP	34	288	1
TAP	35	0	7
TAP	35	96	7
XTP	35	192	0
XTP	35	192	6
HLD	36	0	5	96
TAP	36	96	4
HLD	36	192	3	96
TAP	36	288	4
TAP	37	0	3
TAP	37	0	4
TAP	37	96	2
TAP	37	96	5
XTP	37	192	1
XTP	37	192	6
TAP	38	0	6
TAP	38	96	6
TAP	38	192	6
TAP	38	192	7
TAP	38	288	6
TAP	38	288	7
TAP	39	0	0
TAP	39	96	0
XTP	39	192	1
XTP	39	192	7
STR	40	0	0
SI_	40	0	0	96	192	3
STR	40	0	7
SI_	40	0	7	96	192	4
XTP	41	0	3
XTP	41	0	4
XTP	41	96	2
XTP	41	96	5
XTP	41	192	1
XTP	41	192	6
TAP	42	0	6
TAP	42	96	6
TAP	42	96	7
TAP	42	192	6
TAP	42	288	6
TAP	42	288	7
TAP	43	0	1
TAP	43	96	0
TAP	43	96	1
XTP	43	192	2
XTP	43	192	7
HLD	44	0	2	96
TAP	44	96	3
HLD	44	192	5	96
TAP	44	288	4
TAP	45	0	3
TAP	45	0	4
TAP	45	96	2
TAP	45	96	5
XTP	45	192	1
XTP	45	192	6
TAP	46	0	1
TAP	46	96	0
TAP	46	96	1
TAP	46	192	1
TAP	46	288	0
TAP	46	288	1
TAP	47	0	6
TAP	47	96	6
TAP	47	96	7
XTP	47	192	0
XTP	47	192	5
STR	48	0	0
SCR	48	0	0	96	192	3
STR	48	0	7
SCL	48	0	7	96	192	4
XTP	49	0	3
XTP	49	0	4
XTP	49	96	2
XTP	49	96	5
BRK	49	192	1
BRK	49	192	6
TTP	50	0	1	B	0	L1
TTP	50	192	0	C	0	L1
TTP	51	0	5	B	0	L1
TTP	52	0	6	B	0	L1
TTP	52	192	0	C	0	L1
TTP	53	0	2	B	0	L1
TTP	54	0	1	B	0	L1
TTP	54	192	0	C	0	L1
TTP	55	0	5	B	0	L1
TTP	55	192	6	B	0	L1
TTP	56	0	0	C	0	L1
TTP	56	192	2	B	0	L1
TTP	57	0	0	C	1	L1
STR	58	0	0
SCR	58	0	0	96	384	5
XTP	59	192	6
XTP	59	288	6
STR	60	0	7
SCL	60	0	7	96	384	2
XTP	61	192	1
XTP	61	288	1
HLD	62	0	2	192
HLD	62	192	3	192
HLD	63	0	4	192
TAP	63	192	5
TAP	64	0	6
TAP	64	96	6
TAP	64	192	7
TAP	64	288	7
XTP	65	0	0
XTP	65	0	7
XTP	65	96	0
XTP	65	96	7
BRK	65	192	1
BRK	65	192	6
TAP	66	0	1
TAP	66	96	0
TAP	66	96	1
TAP	66	192	6
TAP	66	288	6
TAP	66	288	7
TAP	67	0	1
TAP	67	96	0
TAP	67	96	1
XTP	67	192	2
XTP	67	192	7
HLD	68	0	2	96
TAP	68	96	3
HLD	68	192	5	96
TAP	68	288	4
TAP	69	0	6
TAP	69	96	6
TAP	69	96	7
XTP	69	192	0
XTP	69	192	5
TAP	70	0	6
TAP	70	96	6
TAP	70	96	7
TAP	70	192	1
TAP	70	288	0
TAP	70	288	1
TAP	71	0	6
TAP	71	96	6
TAP	71	96	7
XTP	71	192	0
XTP	71	192	5
STR	72	0	6
SI_	72	0	6	96	192	3
STR	72	0	7
SI_	72	0	7	96	192	2
XTP	73	0	1
XTP	73	96	0
XTP	73	96	1
XTP	73	192	2
XTP	73	192	7
TAP	74	0	1
TAP	74	96	0
TAP	74	96	1
TAP	74	192	6
TAP	74	288	6
TAP	74	288	7
TAP	75	0	5
TAP	75	96	4
TAP	75	96	5
XTP	75	192	3
XTP	75	192	6
HLD	76	0	5	96
TAP	76	96	4
HLD	76	192	2	96
TAP	76	288	3
TAP	77	0	1
TAP	77	96	0
TAP	77	96	1
XTP	77	192	2
XTP	77	192	7
TAP	78	0	6
TAP	78	96	6
TAP	78	96	7
TAP	78	192	1
TAP	78	288	0
TAP	78	288	1
TAP	79	0	2
TAP	79	96	2
TAP	79	96	3
XTP	79	192	1
XTP	79	192	4
STR	80	0	3
SI_	80	0	3	96	192	7
STR	80	0	4
SI_	80	0	4	96	192	0
XTP	81	0	0
XTP	81	0	7
XTP	81	96	0
XTP	81	96	7
BRK	81	192	1
BRK	81	192	6
TAP	82	0	7
TAP	82	96	6
TAP	82	192	5
XTP	82	288	4
XTP	82	288	5
TAP	83	0	3
TAP	83	96	2
XTP	83	192	0
XTP	83	192	1
TAP	84	0	0
TAP	84	96	1
TAP	84	192	2
XTP	84	288	2
XTP	84	288	3
TAP	85	0	4
XTP	85	96	4
XTP	85	96	5
XTP	85	192	3
XTP	85	192	6
TAP	86	0	6
TAP	86	96	7
TAP	86	192	0
TAP	86	288	1
TAP	87	0	2
XTP	87	96	3
XTP	87	96	4
XTP	87	192	2
XTP	87	192	5
TTP	88	0	3	B	0	L1
TTP	88	0	4	B	0	L1
TTP	88	192	2	B	0	L1
TTP	88	192	5	B	0	L1
THO	89	0	0	288	C	0	L1

T_REC_TAP	164
T_REC_BRK	10
T_REC_XTP	81
T_REC_HLD	21
T_REC_XHO	0
T_REC_STR	10
T_REC_BST	0
T_REC_XST	0
T_REC_TTP	30
T_REC_THO	1
T_REC_SLD	10
T_REC_ALL	327
T_NUM_TAP	285
T_NUM_BRK	10
T_NUM_HLD	22
T_NUM_SLD	10
T_NUM_ALL	327
T_JUDGE_TAP	295
T_JUDGE_HLD	84
T_JUDGE_SLD	10
T_JUDGE_ALL	389
TTM_EACHPAIRS	77
TTM_SCR_TAP	142500
TTM_SCR_BRK	26000
TTM_SCR_HLD	22000
TTM_SCR_SLD	15000
TTM_SCR_ALL	205500
TTM_SCR_S	198400
TTM_SCR_SS	204500
TTM_RAT_ACV	10048

