VERSION	0.00.00	1.03.00
FES_MODE	0
BPM_DEF	153.000	153.000	153.000	153.000
MET_DEF	4	4
RESOLUTION	384
CLK_DEF	384
COMPATIBLE_CODE	MA2

BPM	0	0	153.000
MET	0	0	4	4

TAP	2	0	0
TAP	3	0	0
TAP	4	0	0
HLD	5	0	0	192
TAP	6	0	7
TAP	7	0	7
TAP	8	0	7
HLD	9	0	7	192
TAP	10	0	0
TAP	10	192	0
TAP	11	0	0
TAP	12	0	1
TAP	12	192	1
HLD	13	0	1	192
TAP	14	0	2
TAP	14	192	2
TAP	15	0	2
TAP	16	0	3
TAP	16	192	3
HLD	17	0	3	192
TAP	18	0	4
TAP	19	0	4
TAP	20	0	3
TAP	20	192	3
TAP	21	0	3
TAP	21	0	4
HLD	22	0	3	192
HLD	23	0	4	192
TAP	24	0	3
TAP	24	192	4
XTP	25	0	3
XTP	25	0	4
TAP	26	0	4
TAP	26	96	4
TAP	26	192	4
TAP	27	0	5
TAP	27	96	5
TAP	27	192	5
TAP	28	0	6
TAP	28	192	6
TAP	29	0	0
TAP	29	0	7
TAP	29	192	0
TAP	29	192	7
HLD	30	0	0	192
HLD	31	0	7	192
TAP	32	0	0
TAP	32	192	0
XTP	33	0	0
XTP	33	0	7
TAP	34	0	6
TAP	34	96	6
TAP	34	192	6
TAP	35	0	5
TAP	35	96	5
TAP	35	192	5
TAP	36	0	4
TAP	36	192	4
HLD	37	0	3	192
HLD	37	0	4	192
TAP	38	0	2
TAP	38	96	2
TAP	38	192	2
TAP	39	0	1
TAP	39	96	1
TAP	39	192	1
TAP	40	0	0
TAP	40	192	0
HLD	41	0	0	192
HLD	41	0	7	192
TAP	42	0	1
TAP	42	96	1
TAP	42	192	1
TAP	43	0	2
TAP	43	96	2
TAP	43	192	2
TAP	44	0	3
TAP	44	192	3
HLD	45	0	3	192
HLD	45	0	4	192
TAP	46	0	5
TAP	46	96	5
TAP	46	192	5
TAP	47	0	6
TAP	47	96	6
TAP	47	192	6
TAP	48	0	7
TAP	48	192	7
BRK	49	0	0
BRK	49	0	7
STR	50	0	7
SI_	50	0	7	96	288	4
STR	52	0	0
SI_	52	0	0	96	288	3
STR	54	0	6
SI_	54	0	6	96	288	3
STR	56	0	1
SI_	56	0	1	96	288	4
TTP	58	0	6	B	0	L1
TTP	59	0	5	B	0	L1
TTP	60	0	4	B	0	L1
TTP	61	0	3	B	0	L1
TTP	62	0	2	B	0	L1
TTP	63	0	1	B	0	L1
THO	64	0	0	384	C	1	L1
TAP	66	0	7
TAP	66	96	7
TAP	66	192	7
TAP	67	0	6
TAP	67	96	6
TAP	67	192	6
TAP	68	0	4
TAP	68	0	5
TAP	68	192	4
TAP	68	192	5
HLD	69	0	4	192
HLD	69	0	5	192
TAP	70	0	3
TAP	70	96	3
TAP	70	192	3
TAP	71	0	2
TAP	71	96	2
TAP	71	192	2
TAP	72	0	1
TAP	72	192	1
HLD	73	0	0	192
HLD	73	0	1	192
TAP	74	0	0
TAP	74	96	0
TAP	74	192	0
TAP	75	0	1
TAP	75	96	1
TAP	75	192	1
TAP	76	0	2
TAP	76	0	3
TAP	76	192	2
TAP	76	192	3
HLD	77	0	2	192
HLD	77	0	3	192
TAP	78	0	4
TAP	78	96	4
TAP	78	192	4
TAP	79	0	5
TAP	79	96	5
TAP	79	192	5
TAP	80	0	6
TAP	80	192	6
BRK	81	0	6
BRK	81	0	7
TAP	82	0	0
TAP	82	192	0
TAP	83	0	7
TAP	83	96	7
TAP	83	192	7
TAP	84	0	6
TAP	84	192	6
HLD	85	0	5	192
TAP	86	0	4
TAP	86	192	4
TAP	87	0	3
TAP	87	96	3
TAP	87	192	3
TAP	88	0	2
TAP	88	192	2
HLD	89	0	2	288
HLD	89	0	3	288

T_REC_TAP	120
T_REC_BRK	4
T_REC_XTP	4
T_REC_HLD	23
T_REC_XHO	0
T_REC_STR	4
T_REC_BST	0
T_REC_XST	0
T_REC_TTP	6
T_REC_THO	1
T_REC_SLD	4
T_REC_ALL	166
T_NUM_TAP	134
T_NUM_BRK	4
T_NUM_HLD	24
T_NUM_SLD	4
T_NUM_ALL	166
T_JUDGE_TAP	138
T_JUDGE_HLD	104
T_JUDGE_SLD	4
T_JUDGE_ALL	246
TTM_EACHPAIRS	18
TTM_SCR_TAP	67000
TTM_SCR_BRK	10400
TTM_SCR_HLD	24000
TTM_SCR_SLD	6000
TTM_SCR_ALL	107400
TTM_SCR_S	103800
TTM_SCR_SS	107000
TTM_RAT_ACV	10037

