VERSION	0.00.00	1.03.00
FES_MODE	0
BPM_DEF	150.000	150.000	150.000	150.000
MET_DEF	4	4
RESOLUTION	384
CLK_DEF	384
COMPATIBLE_CODE	MA2

BPM	0	0	150.000
MET	0	0	4	4
MET	69	0	4	3
MET	69	288	4	4

STR	4	192	3
SI_	4	192	3	96	48	0
STR	4	192	7
SI_	4	192	7	96	48	4
XTP	4	288	3
XTP	4	288	7
TAP	5	0	6
TAP	5	48	6
TAP	5	96	0
TAP	5	120	7
TAP	5	168	7
TAP	5	192	0
TAP	5	240	3
TAP	5	240	5
TAP	5	288	4
TAP	5	312	3
TAP	5	336	5
TAP	6	0	1
TAP	6	48	1
TAP	6	96	7
TAP	6	120	0
TAP	6	168	0
TAP	6	192	7
TAP	6	240	2
TAP	6	240	4
TAP	6	288	3
TAP	6	312	4
TAP	6	336	2
TAP	7	0	6
TAP	7	48	0
TAP	7	48	7
TAP	7	96	2
TAP	7	120	3
TAP	7	168	3
TAP	7	192	1
TAP	7	240	3
TAP	7	240	5
TAP	7	288	4
TAP	7	312	3
TAP	7	336	5
TAP	8	0	1
TAP	8	48	0
TAP	8	48	7
TAP	8	96	5
TAP	8	120	4
TAP	8	168	4
STR	8	192	6
SCR	8	192	6	96	48	1
HLD	9	0	2	48
TAP	9	0	3
TAP	9	48	3
TAP	9	96	3
HLD	9	96	4	48
TAP	9	144	3
HLD	9	192	2	48
TAP	9	192	3
TAP	9	240	3
TAP	9	288	3
HLD	9	288	4	48
TAP	9	336	2
HLD	10	0	1	48
TAP	10	0	3
TAP	10	48	3
TAP	10	96	3
HLD	10	96	5	48
TAP	10	144	3
HLD	10	192	1	48
TAP	10	192	3
TAP	10	240	3
TAP	10	288	3
HLD	10	288	5	48
TAP	10	336	2
HLD	11	0	2	48
TAP	11	0	3
TAP	11	48	3
TAP	11	96	3
HLD	11	96	5	48
TAP	11	144	3
HLD	11	192	1	48
TAP	11	192	3
TAP	11	240	3
TAP	11	288	3
HLD	11	288	4	48
TAP	11	336	2
HLD	12	0	1	48
TAP	12	0	3
TAP	12	48	3
TAP	12	96	3
HLD	12	96	5	48
TAP	12	144	3
HLD	12	192	2	48
TAP	12	192	3
TAP	12	240	3
TAP	12	288	1
TAP	12	288	4
BRK	13	0	2
BRK	13	48	1
BST	13	96	0
SI_	13	96	0	96	48	5
TAP	13	144	0
STR	13	192	3
SI_	13	192	3	96	48	7
TAP	13	240	3
TAP	13	288	0
TAP	13	336	0
TAP	14	0	1
STR	14	0	3
SXL	14	0	3	96	48	5
SXR	14	0	3	96	48	1
TAP	14	48	2
TAP	14	192	7
TAP	14	240	7
TAP	14	288	0
TAP	14	336	1
TAP	14	336	6
HLD	15	0	4	24
HLD	15	0	5	24
HLD	15	48	4	24
HLD	15	48	5	24
HLD	15	96	2	24
HLD	15	96	3	24
HLD	15	144	2	24
HLD	15	144	3	24
HLD	15	192	5	24
HLD	15	240	4	24
HLD	15	288	3	24
HLD	15	336	2	24
STR	16	0	5
SI_	16	0	5	96	48	2
TAP	16	48	5
STR	16	96	1
SI_	16	96	1	96	48	6
TAP	16	144	1
TAP	16	192	7
TAP	16	240	7
XTP	16	288	2
XTP	16	288	5
TAP	17	0	1
TAP	17	48	0
TAP	17	48	7
TAP	17	96	5
TAP	17	120	4
TAP	17	168	4
TAP	17	192	6
TAP	17	240	1
TAP	17	240	7
TAP	17	288	3
TAP	17	312	4
TAP	17	336	2
TAP	18	0	6
TAP	18	48	0
TAP	18	48	7
TAP	18	96	2
TAP	18	120	3
TAP	18	168	3
TAP	18	192	1
TAP	18	240	0
TAP	18	240	6
TAP	18	288	4
TAP	18	312	3
TAP	18	336	5
TAP	19	0	1
TAP	19	48	0
TAP	19	48	7
TAP	19	96	5
TAP	19	120	4
TAP	19	168	4
TAP	19	192	6
TAP	19	240	1
TAP	19	240	7
TAP	19	288	3
TAP	19	312	4
TAP	19	336	2
TAP	20	0	6
TAP	20	48	0
TAP	20	48	7
TAP	20	96	2
TAP	20	120	3
TAP	20	168	3
HLD	20	192	1	72
HLD	20	264	2	72
TAP	20	336	3
HLD	21	0	3	48
TAP	21	0	4
TAP	21	48	4
TAP	21	96	4
HLD	21	96	5	48
TAP	21	144	4
HLD	21	192	3	48
TAP	21	192	4
TAP	21	240	4
TAP	21	288	4
HLD	21	288	6	48
TAP	21	336	3
HLD	22	0	2	48
TAP	22	0	4
TAP	22	48	4
TAP	22	96	4
HLD	22	96	5	48
TAP	22	144	4
HLD	22	192	3	48
TAP	22	192	4
TAP	22	240	5
STR	22	288	0
SUR	22	288	0	96	96	4
STR	22	288	6
SI_	22	288	6	96	96	1
XTP	23	144	7
TAP	23	192	7
TAP	23	240	2
TAP	23	264	3
TAP	23	288	1
TAP	23	336	5
TAP	23	360	4
TAP	24	0	6
TAP	24	48	2
TAP	24	72	3
TAP	24	96	1
TAP	24	144	5
TAP	24	168	4
TAP	24	192	6
TAP	24	240	0
TAP	24	240	7
TAP	24	288	2
TAP	24	288	5
TTP	25	0	1	B	0	M1
TTP	25	24	6	B	0	M1
TTP	25	48	3	E	0	M1
TTP	25	72	5	E	0	M1
TTP	25	96	2	E	0	M1
TTP	25	120	6	E	0	M1
TTP	25	144	1	E	0	M1
TTP	25	168	7	E	0	M1
TTP	25	192	2	B	0	M1
TTP	25	216	5	B	0	M1
TTP	25	240	0	B	0	M1
TTP	25	264	7	B	0	M1
TTP	25	288	3	B	0	M1
TTP	25	312	4	B	0	M1
TTP	25	336	1	B	0	M1
TTP	25	360	6	B	0	M1
TTP	26	0	3	E	0	M1
TTP	26	24	5	E	0	M1
TTP	26	48	2	E	0	M1
TTP	26	72	6	E	0	M1
TTP	26	96	1	E	0	M1
TTP	26	120	7	E	0	M1
TTP	26	144	2	B	0	M1
TTP	26	168	5	B	0	M1
TTP	26	192	0	B	0	M1
TTP	26	216	7	B	0	M1
TTP	26	240	3	B	0	M1
TTP	26	264	4	B	0	M1
TTP	26	288	0	C	0	M1
STR	27	0	5
SI_	27	0	5	96	48	2
TAP	27	48	5
STR	27	96	1
SI_	27	96	1	96	48	7
TAP	27	144	1
STR	27	192	6
SLL	27	192	6	96	48	2
TAP	27	240	6
TAP	27	288	1
TAP	27	336	1
TAP	28	0	0
TAP	28	48	0
STR	28	96	7
SI_	28	96	7	96	48	4
TAP	28	144	7
STR	28	192	0
SI_	28	192	0	96	48	3
TAP	28	240	0
BRK	28	288	7
HLD	29	0	4	48
HLD	29	0	5	48
TAP	29	72	4
TAP	29	72	6
TAP	29	120	3
TAP	29	120	5
TAP	29	168	3
TAP	29	168	6
TTP	29	240	4	E	0	M1
TTP	29	264	3	E	0	M1
TTP	29	288	2	E	0	M1
TAP	30	0	0
TAP	30	48	1
TAP	30	48	3
TAP	30	96	4
TAP	30	144	3
TAP	30	144	5
TAP	30	192	6
TAP	30	216	7
TAP	30	240	5
TAP	30	288	0
TAP	30	288	6
HLD	31	0	2	48
HLD	31	0	3	48
TAP	31	72	1
TAP	31	72	3
TAP	31	120	2
TAP	31	120	4
TAP	31	168	1
TAP	31	168	4
TAP	31	240	0
TAP	31	264	0
TAP	31	288	7
TAP	32	0	7
TAP	32	48	4
TAP	32	48	6
TAP	32	96	3
TAP	32	144	2
TAP	32	144	4
TAP	32	192	1
TAP	32	216	0
TAP	32	240	2
TAP	32	288	1
TAP	32	288	7
HLD	33	0	4	48
HLD	33	0	5	48
TAP	33	72	4
TAP	33	72	6
TAP	33	120	3
TAP	33	120	5
TAP	33	168	3
TAP	33	168	6
TAP	33	240	7
TAP	33	264	7
TAP	33	288	0
TAP	34	0	0
TAP	34	48	1
TAP	34	48	3
TAP	34	96	4
TAP	34	144	3
TAP	34	144	5
TAP	34	240	0
TAP	34	240	7
TAP	34	288	0
TAP	34	288	7
STR	35	0	2
SLL	35	0	2	96	96	3
STR	35	0	6
SLL	35	0	6	96	96	7
TTP	35	336	0	E	0	M1
XTP	35	336	1
TTP	36	48	4	E	0	M1
XTP	36	48	5
XTP	36	144	0
TTP	36	144	0	C	0	M1
BRK	36	240	7
BRK	36	288	7
STR	37	0	5
SCL	37	0	5	96	48	2
TAP	37	48	1
TAP	37	96	5
TAP	37	144	0
STR	37	192	5
SCL	37	192	5	96	48	2
TAP	37	240	1
TAP	37	288	5
TAP	37	336	0
TAP	38	0	0
TAP	38	0	7
TAP	38	48	2
TAP	38	72	3
STR	38	96	1
SCR	38	96	1	96	48	4
TAP	38	144	0
TAP	38	144	5
TAP	38	192	1
TAP	38	240	7
TAP	38	288	7
TAP	38	336	3
TAP	38	336	6
STR	39	0	3
SI_	39	0	3	96	48	0
TAP	39	0	6
TAP	39	96	3
STR	39	96	4
SI_	39	96	4	96	48	7
HLD	39	192	3	96
TAP	39	192	4
TAP	39	288	0
TAP	39	336	7
TAP	40	0	4
TAP	40	0	6
TAP	40	48	2
TAP	40	72	3
STR	40	96	0
SV_	40	96	0	96	48	3
SV_	40	96	0	96	48	5
TAP	40	144	1
TAP	40	144	7
TAP	40	192	0
XTP	40	288	2
XTP	40	288	6
STR	41	0	2
SCR	41	0	2	96	48	5
TAP	41	48	6
TAP	41	96	2
TAP	41	144	7
STR	41	192	2
SCR	41	192	2	96	48	5
TAP	41	240	6
TAP	41	288	2
TAP	41	336	7
TAP	42	0	0
TAP	42	0	7
TAP	42	48	5
TAP	42	72	4
STR	42	96	6
SCL	42	96	6	96	48	3
TAP	42	144	2
TAP	42	144	7
TAP	42	192	6
TAP	42	240	0
TAP	42	288	0
TAP	42	336	1
TAP	42	336	4
TAP	43	0	1
STR	43	0	4
SI_	43	0	4	96	48	7
STR	43	96	3
SI_	43	96	3	96	48	0
TAP	43	96	4
TAP	43	192	3
HLD	43	192	4	96
TAP	43	288	7
TAP	43	336	0
TAP	44	0	1
TAP	44	0	3
TAP	44	48	5
TAP	44	72	4
STR	44	96	6
SCL	44	96	6	96	48	3
TAP	44	144	1
TAP	44	144	7
TAP	44	192	6
TAP	44	240	0
TAP	44	288	0
TAP	44	336	6
STR	45	0	1
SI_	45	0	1	96	48	4
TAP	45	0	7
TAP	45	48	7
TAP	45	96	1
TAP	45	96	7
TAP	45	144	7
TAP	45	192	0
STR	45	192	6
SI_	45	192	6	96	48	3
TAP	45	240	0
TAP	45	288	0
TAP	45	288	6
TAP	45	336	0
STR	46	0	1
SI_	46	0	1	96	48	5
TAP	46	0	7
TAP	46	48	7
TAP	46	96	1
TAP	46	96	7
TAP	46	144	7
TAP	46	192	0
STR	46	192	6
SI_	46	192	6	96	48	2
TAP	46	240	0
TAP	46	288	0
TAP	46	288	6
TAP	46	336	0
STR	47	0	1
SI_	47	0	1	96	48	4
TAP	47	0	7
TAP	47	48	7
TAP	47	96	1
TAP	47	96	7
TAP	47	144	7
TAP	47	192	0
STR	47	192	6
SI_	47	192	6	96	48	3
TAP	47	240	0
TAP	47	288	0
TAP	47	288	6
TAP	47	336	0
TAP	48	0	0
TAP	48	0	7
TAP	48	72	1
TAP	48	72	3
TAP	48	144	4
TAP	48	144	6
TAP	48	192	0
TAP	48	192	7
BRK	48	288	2
BRK	48	288	5
TTP	49	0	0	C	1	M1
TTP	50	240	6	E	0	M1
TTP	50	256	5	B	0	M1
TTP	50	272	2	B	0	M1
TTP	50	288	2	E	0	M1
TTP	51	0	0	E	0	M1
TTP	51	288	4	E	0	M1
TTP	52	96	4	E	0	M1
TTP	52	288	4	E	0	M1
TAP	53	0	3
TAP	53	0	4
TTP	53	96	3	E	0	M1
TTP	53	96	5	E	0	M1
TAP	53	192	3
TAP	53	192	4
TTP	53	288	3	E	0	M1
TTP	53	288	5	E	0	M1
TAP	54	0	3
TAP	54	0	4
TTP	54	96	4	E	0	M1
TTP	54	96	6	E	0	M1
TAP	54	192	3
TAP	54	192	4
TTP	54	288	2	E	0	M1
TTP	54	288	4	E	0	M1
TAP	55	0	3
TAP	55	0	4
TTP	55	96	3	E	0	M1
TTP	55	96	6	E	0	M1
TAP	55	192	3
TAP	55	192	4
TTP	55	288	2	E	0	M1
TTP	55	288	5	E	0	M1
TTP	56	0	0	C	1	M1
XTP	56	192	0
XTP	56	216	0
XTP	56	240	7
XTP	56	264	7
XTP	56	288	0
XTP	56	312	0
XTP	56	336	7
TAP	57	0	6
TAP	57	48	0
TAP	57	48	7
TAP	57	96	2
TAP	57	120	3
TAP	57	168	3
TAP	57	192	1
TAP	57	240	0
TAP	57	240	6
TAP	57	288	4
TAP	57	312	3
TAP	57	336	5
TAP	58	0	1
TAP	58	48	0
TAP	58	48	7
TAP	58	96	5
TAP	58	120	4
TAP	58	168	4
TAP	58	192	6
TAP	58	240	1
TAP	58	240	7
TAP	58	288	3
TAP	58	312	4
TAP	58	336	2
TAP	59	0	0
TAP	59	0	7
TAP	59	48	0
TAP	59	48	7
TAP	59	96	1
TAP	59	144	2
TAP	59	144	3
TAP	59	192	4
TAP	59	240	4
TAP	59	240	5
TAP	59	288	6
TAP	59	336	0
TAP	59	336	7
TAP	60	0	1
TAP	60	48	2
TAP	60	48	4
TAP	60	96	5
TAP	60	144	3
TAP	60	144	6
TAP	60	192	5
TAP	60	216	4
TAP	60	240	5
TAP	60	264	4
TAP	60	288	5
TAP	60	312	3
TAP	60	336	4
HLD	61	0	2	48
HLD	61	0	3	48
TAP	61	72	1
TAP	61	72	3
TAP	61	120	2
TAP	61	120	4
TAP	61	168	1
TAP	61	168	4
TTP	61	240	4	E	0	M1
TTP	61	264	5	E	0	M1
TTP	61	288	6	E	0	M1
TAP	62	0	7
TAP	62	48	4
TAP	62	48	6
TAP	62	96	3
TAP	62	144	2
TAP	62	144	4
TAP	62	192	1
TAP	62	216	0
TAP	62	240	2
TAP	62	288	1
TAP	62	288	7
HLD	63	0	4	48
HLD	63	0	5	48
TAP	63	72	4
TAP	63	72	6
TAP	63	120	3
TAP	63	120	5
TAP	63	168	3
TAP	63	168	6
TAP	63	240	7
TAP	63	264	7
TAP	63	288	0
TAP	64	0	0
TAP	64	48	1
TAP	64	48	3
TAP	64	96	4
TAP	64	144	3
TAP	64	144	5
TAP	64	192	6
TAP	64	216	7
TAP	64	240	5
TAP	64	288	0
TAP	64	288	6
HLD	65	0	2	48
HLD	65	0	3	48
TAP	65	72	1
TAP	65	72	3
TAP	65	120	2
TAP	65	120	4
TAP	65	168	1
TAP	65	168	4
TAP	65	240	0
TAP	65	264	0
TAP	65	288	7
TAP	66	0	7
TAP	66	48	4
TAP	66	48	6
TAP	66	96	3
TAP	66	144	2
TAP	66	144	4
TAP	66	240	0
TAP	66	240	7
TAP	66	288	0
TAP	66	288	7
STR	67	0	1
SLR	67	0	1	96	144	0
STR	67	0	5
SLR	67	0	5	96	144	4
TTP	67	336	0	E	0	M1
XTP	67	336	6
XTP	68	48	2
TTP	68	48	4	E	0	M1
THO	68	144	0	240	C	0	M1
XTP	68	144	7
STR	69	288	3
SUL	69	288	3	96	192	6
TAP	70	0	4
TAP	70	192	4
STR	70	288	4
SUR	70	288	4	96	192	1
TAP	71	0	3
TAP	71	192	3
STR	71	288	3
SUL	71	288	3	96	192	7
TAP	72	0	4
TAP	72	192	4
STR	72	288	4
SUR	72	288	4	96	192	0
TAP	73	0	3
TAP	73	192	3
STR	73	288	3
SCL	73	288	3	96	192	0
TAP	74	0	4
TAP	74	96	4
TAP	74	192	4
STR	74	288	4
SCR	74	288	4	96	192	7
TAP	75	0	3
TAP	75	96	3
TAP	75	192	3
STR	75	288	3
SI_	75	288	3	96	192	0
TAP	76	0	4
TAP	76	96	4
HLD	76	192	4	96
THO	76	288	0	192	C	1	M1
TTP	77	96	0	E	0	M1
TTP	77	108	7	E	0	M1
TTP	77	120	6	E	0	M1
TTP	77	132	5	E	0	M1
TTP	77	144	4	E	0	M1
TTP	77	156	3	E	0	M1
TTP	77	168	2	E	0	M1
TTP	77	180	1	E	0	M1
TTP	77	192	0	E	0	M1
STR	77	288	2
SCR	77	288	2	96	48	5
TAP	77	336	6
TAP	78	0	2
TAP	78	48	7
STR	78	96	2
SCR	78	96	2	96	48	5
TAP	78	144	6
TAP	78	192	2
TAP	78	240	7
TAP	78	288	0
TAP	78	288	7
TAP	78	336	5
TAP	78	360	4
STR	79	0	6
SI_	79	0	6	96	48	2
TAP	79	48	3
TAP	79	48	7
TAP	79	96	6
TAP	79	144	0
TAP	79	192	0
TAP	79	240	1
TAP	79	240	4
STR	79	288	1
SI_	79	288	1	96	48	6
TAP	79	288	4
TAP	80	0	1
STR	80	0	5
SI_	80	0	5	96	48	2
HLD	80	96	0	96
TAP	80	96	5
TAP	80	192	4
TAP	80	240	4
TAP	80	288	1
TAP	80	288	3
TAP	80	336	5
TAP	80	360	4
STR	81	0	6
SCL	81	0	6	96	48	3
TAP	81	48	1
TAP	81	48	7
TAP	81	96	6
TAP	81	144	0
TAP	81	192	0
TAP	81	240	4
STR	81	288	5
SCL	81	288	5	96	48	2
TAP	81	336	1
TAP	82	0	5
TAP	82	48	0
STR	82	96	5
SCL	82	96	5	96	48	2
TAP	82	144	1
TAP	82	192	5
TAP	82	240	0
TAP	82	288	0
TAP	82	288	7
TAP	82	336	2
TAP	82	360	3
STR	83	0	1
SI_	83	0	1	96	48	5
TAP	83	48	0
TAP	83	48	6
TAP	83	96	1
TAP	83	144	7
TAP	83	192	7
TAP	83	240	3
TAP	83	240	6
TAP	83	288	3
STR	83	288	6
SCR	83	288	6	96	48	1
STR	84	0	2
SCR	84	0	2	96	48	5
TAP	84	0	6
TAP	84	96	2
HLD	84	96	7	96
TAP	84	192	0
TAP	84	240	7
TAP	84	288	4
TAP	84	288	6
TAP	84	336	2
TAP	84	360	3
STR	85	0	0
SCL	85	0	0	96	48	5
SCR	85	0	0	96	48	3
TAP	85	48	1
TAP	85	48	7
TAP	85	96	0
TAP	85	192	2
TAP	85	192	6
TAP	85	240	1
TAP	85	288	0
STR	85	288	6
SI_	85	288	6	96	48	3
TAP	85	336	0
TAP	86	0	2
TAP	86	0	6
TAP	86	48	2
STR	86	96	1
SI_	86	96	1	96	48	4
TAP	86	96	7
TAP	86	144	7
TAP	86	192	1
TAP	86	192	5
TAP	86	240	5
TAP	86	288	0
STR	86	288	6
SI_	86	288	6	96	48	2
TAP	86	336	0
TAP	87	0	3
TAP	87	0	6
TAP	87	48	3
STR	87	96	1
SI_	87	96	1	96	48	5
TAP	87	96	7
TAP	87	144	7
TAP	87	192	1
TAP	87	192	4
TAP	87	240	4
TAP	87	288	0
STR	87	288	6
SI_	87	288	6	96	48	3
TAP	87	336	0
TAP	88	0	2
TAP	88	0	6
TAP	88	48	2
STR	88	96	1
SI_	88	96	1	96	48	4
TAP	88	96	7
TAP	88	144	7
TAP	88	192	1
TAP	88	192	5
TAP	88	240	5
TAP	88	288	0
STR	88	288	7
SCL	88	288	7	96	96	3
STR	89	0	3
SCL	89	0	3	96	96	7
TAP	89	96	7
TAP	89	192	3
TAP	89	240	3
STR	89	288	2
SI_	89	288	2	96	48	7
TAP	89	288	4
TAP	89	336	4
TAP	90	0	2
TAP	90	0	6
TAP	90	48	6
TAP	90	96	3
STR	90	96	5
SI_	90	96	5	96	48	0
TAP	90	144	3
TAP	90	192	1
TAP	90	192	5
TAP	90	240	1
STR	90	288	2
SI_	90	288	2	96	48	6
TAP	90	288	4
TAP	90	336	4
TAP	91	0	2
TAP	91	0	7
TAP	91	48	7
TAP	91	96	3
STR	91	96	5
SI_	91	96	5	96	48	1
TAP	91	144	3
TAP	91	192	0
TAP	91	192	5
TAP	91	240	0
STR	91	288	2
SCL	91	288	2	96	48	7
TAP	91	288	4
TAP	91	336	4
TAP	92	0	2
TAP	92	0	6
TAP	92	48	6
TAP	92	96	3
STR	92	96	5
SCR	92	96	5	96	48	0
TAP	92	144	3
TAP	92	192	1
TAP	92	192	5
TAP	92	240	1
TAP	92	288	0
TAP	92	288	7
TAP	92	360	1
TAP	92	360	3
TAP	93	48	4
TAP	93	48	6
STR	93	96	0
SI_	93	96	0	96	48	4
STR	93	96	7
SI_	93	96	7	96	48	3
XTP	93	192	0
XTP	93	192	7
BRK	93	288	0

T_REC_TAP	593
T_REC_BRK	8
T_REC_XTP	22
T_REC_HLD	53
T_REC_XHO	0
T_REC_STR	71
T_REC_BST	1
T_REC_XST	0
T_REC_TTP	71
T_REC_THO	2
T_REC_SLD	75
T_REC_ALL	896
T_NUM_TAP	757
T_NUM_BRK	9
T_NUM_HLD	55
T_NUM_SLD	75
T_NUM_ALL	896
T_JUDGE_TAP	766
T_JUDGE_HLD	69
T_JUDGE_SLD	75
T_JUDGE_ALL	910
TTM_EACHPAIRS	191
TTM_SCR_TAP	378500
TTM_SCR_BRK	23400
TTM_SCR_HLD	55000
TTM_SCR_SLD	112500
TTM_SCR_ALL	569400
TTM_SCR_S	551450
TTM_SCR_SS	568500
TTM_RAT_ACV	10015

