VERSION	0.00.00	1.03.00
FES_MODE	0
BPM_DEF	150.000	150.000	150.000	150.000
MET_DEF	4	4
RESOLUTION	384
CLK_DEF	384
COMPATIBLE_CODE	MA2

BPM	0	0	150.000
MET	0	0	4	4
MET	69	0	4	3
MET	69	288	4	4

HLD	1	0	3	768
TAP	1	0	4
HLD	3	0	4	384
THO	4	0	0	192	C	0	M1
TAP	5	0	1
TAP	5	48	1
TAP	5	96	4
TAP	5	144	4
HLD	5	192	2	96
TAP	5	288	3
TAP	6	0	6
TAP	6	48	6
TAP	6	96	3
TAP	6	144	3
HLD	6	192	5	96
TAP	6	288	4
TAP	7	0	1
TAP	7	48	1
TAP	7	96	4
TAP	7	144	4
TAP	7	192	2
TAP	7	240	2
TAP	7	288	6
TAP	7	336	6
HLD	8	0	4	96
HLD	8	96	7	96
BRK	8	192	0
TAP	8	288	1
TAP	8	288	6
TAP	9	0	5
TAP	9	96	2
TAP	9	96	4
TAP	9	192	3
TAP	9	240	3
TAP	9	288	3
TAP	10	0	2
TAP	10	96	3
TAP	10	96	5
TAP	10	192	4
TAP	10	240	4
TAP	10	288	4
TAP	11	0	6
TAP	11	96	4
TAP	11	192	3
TAP	11	288	1
TAP	12	0	0
TAP	12	0	1
TAP	12	96	6
TAP	12	96	7
TAP	12	192	0
TAP	12	240	0
XTP	12	288	0
XTP	12	288	7
TAP	13	0	6
TAP	13	96	3
TAP	13	96	5
TAP	13	192	2
TAP	13	240	2
TAP	13	288	2
TAP	13	288	3
TAP	14	0	1
TAP	14	96	2
TAP	14	96	4
TAP	14	192	5
TAP	14	240	5
TAP	14	288	4
TAP	14	288	5
TAP	15	0	7
TAP	15	96	5
TAP	15	192	1
STR	15	288	2
SI_	15	288	2	96	96	7
TAP	15	288	3
TAP	16	192	6
TAP	16	240	6
BRK	16	288	0
BRK	16	288	6
HLD	17	0	1	96
TAP	17	96	3
TAP	17	192	2
TAP	17	288	3
TAP	17	288	5
HLD	18	0	6	96
TAP	18	96	4
TAP	18	192	5
TAP	18	288	2
TAP	18	288	4
TAP	19	0	1
TAP	19	96	0
TAP	19	96	1
TAP	19	192	6
TAP	19	288	6
TAP	19	288	7
HLD	20	0	5	96
HLD	20	96	2	96
TAP	20	192	3
BRK	20	288	1
BRK	20	288	5
HLD	21	0	2	192
TAP	21	0	4
TAP	21	96	4
TAP	21	192	3
TAP	21	240	3
TAP	21	288	2
TAP	21	288	3
TAP	22	0	1
HLD	22	0	4	192
TAP	22	96	2
TAP	22	192	3
STR	22	288	4
SI_	22	288	4	96	96	0
HLD	22	288	6	96
XTP	23	144	7
XTP	23	192	1
XTP	23	192	7
XTP	23	288	2
XTP	23	288	5
HLD	24	0	6	96
TAP	24	96	4
TAP	24	192	3
TAP	24	192	4
XTP	24	288	1
XTP	24	288	3
STR	25	0	2
SCR	25	0	2	96	96	5
TAP	25	192	6
TAP	25	288	6
STR	26	0	5
SCL	26	0	5	96	96	2
TAP	26	192	1
XTP	26	288	1
XTP	26	288	7
TAP	27	0	2
TAP	27	48	2
TAP	27	96	4
TAP	27	144	4
TAP	27	192	3
TAP	27	240	3
TAP	27	288	5
TAP	27	336	5
TAP	28	0	1
TAP	28	48	1
HLD	28	96	6	96
TAP	28	192	7
XTP	28	288	2
XTP	28	288	5
XTP	29	0	1
XHO	29	0	3	168
XTP	29	72	2
XTP	29	120	2
XHO	29	168	2	120
TAP	29	288	3
TTP	30	0	5	E	0	M1
TTP	30	96	6	B	0	M1
TTP	30	96	6	E	0	M1
TTP	30	192	3	E	0	M1
TTP	30	288	1	B	0	M1
TTP	30	288	2	E	0	M1
XHO	31	0	4	168
XTP	31	0	6
XTP	31	72	5
XTP	31	120	5
XHO	31	168	5	120
TAP	31	288	4
TTP	32	0	4	E	0	M1
TTP	32	96	0	C	0	M1
TTP	32	192	1	B	0	M1
TTP	32	192	6	B	0	M1
TTP	32	288	4	E	0	M1
XTP	33	0	1
XHO	33	0	3	168
XTP	33	72	2
XTP	33	120	2
XHO	33	168	2	120
TAP	33	288	3
TTP	34	0	2	B	0	M1
TTP	34	96	0	B	0	M1
TTP	34	96	1	E	0	M1
TTP	34	192	5	B	0	M1
TTP	34	288	7	B	0	M1
TTP	34	288	7	E	0	M1
TTP	35	0	0	E	0	M1
TTP	35	96	0	C	0	M1
TTP	35	192	4	E	0	M1
TAP	35	288	2
TAP	35	288	5
XTP	35	336	2
XTP	35	336	5
XTP	36	48	4
XTP	36	48	6
XTP	36	144	0
XTP	36	144	5
XTP	36	240	7
XST	36	288	7
SCL	36	288	7	96	96	2
BRK	37	0	2
TAP	37	144	1
HLD	37	192	1	72
HLD	37	264	2	72
TAP	37	336	3
HLD	38	0	6	72
HLD	38	72	5	72
TAP	38	144	4
XTP	38	192	3
XTP	38	192	6
TAP	38	288	1
TAP	38	288	4
TAP	39	0	6
TAP	39	0	7
TAP	39	96	4
TAP	39	96	5
TAP	39	192	2
TAP	39	192	3
STR	39	288	0
SCL	39	288	0	96	96	5
STR	39	288	1
SCR	39	288	1	96	96	4
BRK	40	192	1
BRK	40	192	6
TAP	40	240	0
TAP	40	240	7
TAP	40	288	0
STR	40	288	7
SCL	40	288	7	96	96	2
XTP	41	0	2
TAP	41	144	1
HLD	41	192	1	72
HLD	41	264	2	72
TAP	41	336	3
HLD	42	0	6	72
HLD	42	72	5	72
TAP	42	144	4
TAP	42	192	3
TAP	42	192	6
TAP	42	288	2
TAP	42	288	4
TAP	43	0	0
TAP	43	0	1
TAP	43	96	2
TAP	43	96	3
TAP	43	192	4
TAP	43	192	5
STR	43	288	6
SCL	43	288	6	96	96	3
STR	43	288	7
SCR	43	288	7	96	96	2
BRK	44	192	2
BRK	44	192	7
TAP	44	240	0
TAP	44	240	1
TAP	44	288	0
TAP	44	288	1
TAP	45	0	1
STR	45	0	7
SI_	45	0	7	96	48	3
TAP	45	96	1
STR	45	192	1
SI_	45	192	1	96	48	4
TAP	45	288	6
STR	46	0	6
SI_	46	0	6	96	48	3
TAP	46	96	2
TAP	46	192	1
TAP	46	288	1
TAP	46	288	3
STR	47	0	2
SI_	47	0	2	96	48	7
TAP	47	0	4
TAP	47	96	4
STR	47	192	5
SI_	47	192	5	96	48	2
TAP	47	288	0
XTP	48	0	1
XTP	48	72	2
XTP	48	72	3
XTP	48	144	4
XTP	48	144	5
XTP	48	192	3
XTP	48	192	6
TAP	48	288	7
TTP	49	0	0	C	1	M1
TTP	53	0	7	B	0	M1
TTP	53	96	6	B	0	M1
TTP	53	192	5	B	0	M1
TTP	53	288	4	B	0	M1
TTP	54	0	3	B	0	M1
TTP	54	96	2	B	0	M1
TTP	54	192	1	B	0	M1
TTP	54	288	0	B	0	M1
TTP	55	0	0	E	0	M1
TTP	55	96	0	C	0	M1
TTP	55	192	4	E	0	M1
TTP	55	288	3	E	0	M1
TTP	55	288	5	E	0	M1
THO	56	0	0	192	C	1	M1
TAP	57	0	6
TAP	57	48	6
TAP	57	96	3
TAP	57	144	3
TAP	57	192	7
TAP	57	240	7
TAP	57	288	4
TAP	57	336	4
TAP	58	0	6
TAP	58	48	6
TAP	58	96	0
TAP	58	144	0
TAP	58	192	7
XTP	58	288	2
XTP	58	288	5
TAP	59	0	1
TAP	59	48	1
TAP	59	96	4
TAP	59	144	4
TAP	59	192	0
TAP	59	240	0
TAP	59	288	3
TAP	59	336	3
TAP	60	0	1
TAP	60	48	1
TAP	60	96	7
TAP	60	144	7
TAP	60	192	0
BRK	60	288	3
BRK	60	288	4
XHO	61	0	4	168
XTP	61	0	6
XTP	61	72	5
XTP	61	120	5
XHO	61	168	5	120
TAP	61	288	4
TTP	62	0	3	E	0	M1
TTP	62	96	1	B	0	M1
TTP	62	96	2	E	0	M1
TTP	62	192	5	E	0	M1
TTP	62	288	6	B	0	M1
TTP	62	288	6	E	0	M1
XTP	63	0	1
XHO	63	0	3	168
XTP	63	72	2
XTP	63	120	2
XHO	63	168	2	120
TAP	63	288	3
TTP	64	0	0	E	0	M1
TTP	64	96	0	C	0	M1
TTP	64	192	4	E	0	M1
TTP	64	288	2	B	0	M1
TTP	64	288	5	B	0	M1
XHO	65	0	4	168
XTP	65	0	6
XTP	65	72	5
XTP	65	120	5
XHO	65	168	5	120
TAP	65	288	4
TTP	66	0	3	B	0	M1
TTP	66	0	3	E	0	M1
TTP	66	96	0	B	0	M1
TTP	66	96	1	E	0	M1
TTP	66	192	4	B	0	M1
TTP	66	192	5	E	0	M1
TTP	66	288	7	B	0	M1
TTP	66	288	7	E	0	M1
TTP	67	0	0	E	0	M1
TTP	67	96	0	C	0	M1
TTP	67	192	3	E	0	M1
TTP	67	192	5	E	0	M1
TAP	67	288	1
TAP	67	288	6
XTP	67	336	1
XTP	67	336	6
XTP	68	48	2
XTP	68	48	7
XHO	68	144	0	216
XHO	68	144	4	528
TAP	69	288	3
TAP	70	0	4
TAP	70	0	5
TAP	70	192	4
TAP	70	192	5
TAP	71	0	4
TAP	71	0	5
TAP	71	144	4
TAP	71	144	5
TAP	71	192	4
TAP	71	192	5
TAP	71	288	3
TAP	71	288	4
TAP	72	0	2
TAP	72	0	3
TAP	72	192	2
TAP	72	192	3
TAP	73	0	2
TAP	73	0	3
TAP	73	144	2
TAP	73	144	3
TAP	73	192	2
TAP	73	192	3
HLD	73	288	2	96
HLD	74	0	3	96
HLD	74	96	4	96
TAP	74	192	5
HLD	74	288	5	96
HLD	75	0	4	96
HLD	75	96	3	96
TAP	75	192	2
HLD	75	288	1	96
HLD	76	0	3	96
HLD	76	96	4	96
TAP	76	192	6
TTP	76	288	0	C	0	M1
XTP	77	96	1
XTP	77	96	6
XTP	77	144	0
STR	77	192	0
SCR	77	192	0	96	96	5
BRK	77	288	5
TAP	78	48	6
HLD	78	96	6	72
HLD	78	168	5	72
TAP	78	240	4
HLD	78	288	2	72
HLD	78	360	1	72
TAP	79	48	0
XTP	79	96	2
XTP	79	96	7
TAP	79	192	0
TAP	79	192	5
TAP	79	288	6
TAP	79	288	7
TAP	80	0	0
TAP	80	0	1
TAP	80	96	2
TAP	80	96	3
STR	80	192	4
SCL	80	192	4	96	96	1
STR	80	192	5
SCR	80	192	5	96	96	0
BRK	81	96	1
BRK	81	96	6
TAP	81	144	0
TAP	81	144	7
STR	81	192	0
SCR	81	192	0	96	96	5
TAP	81	192	7
XTP	81	288	5
TAP	82	48	6
HLD	82	96	6	72
HLD	82	168	5	72
TAP	82	240	4
HLD	82	288	2	72
HLD	82	360	1	72
TAP	83	48	0
TAP	83	96	2
TAP	83	96	7
TAP	83	192	0
TAP	83	192	4
TAP	83	288	6
TAP	83	288	7
TAP	84	0	0
TAP	84	0	1
TAP	84	96	2
TAP	84	96	3
STR	84	192	4
SCL	84	192	4	96	96	1
STR	84	192	5
SCR	84	192	5	96	96	0
BRK	85	96	0
BRK	85	96	5
TAP	85	144	6
TAP	85	144	7
TAP	85	192	6
TAP	85	192	7
STR	85	288	0
SI_	85	288	0	96	48	4
TAP	85	288	5
TAP	86	0	6
TAP	86	48	6
STR	86	96	6
SI_	86	96	6	96	48	3
TAP	86	192	1
TAP	86	240	1
STR	86	288	1
SI_	86	288	1	96	48	4
TAP	87	0	6
TAP	87	48	6
TAP	87	96	6
TAP	87	192	4
TAP	87	192	6
STR	87	288	5
SI_	87	288	5	96	48	0
TAP	88	0	2
TAP	88	48	2
STR	88	96	2
SCR	88	96	2	96	48	5
TAP	88	192	7
THO	88	288	0	192	C	0	M1
XTP	89	192	0
XTP	89	192	7
STR	89	288	1
SCR	89	288	1	96	48	4
TAP	90	0	5
TAP	90	48	5
STR	90	96	5
SCR	90	96	5	96	48	0
TAP	90	192	2
TAP	90	240	2
STR	90	288	2
SCR	90	288	2	96	48	5
TAP	91	0	6
TAP	91	48	6
TAP	91	96	6
TAP	91	192	0
TAP	91	192	6
STR	91	288	7
SCL	91	288	7	96	48	4
TAP	92	0	2
TAP	92	48	2
HLD	92	96	1	96
TAP	92	192	0
XTP	92	288	1
XTP	92	288	3
XTP	92	360	4
XTP	92	360	6
XTP	93	48	0
XTP	93	48	7
XTP	93	96	1
XHO	93	96	6	96
TAP	93	192	0
BRK	93	288	2
BRK	93	288	7

T_REC_TAP	265
T_REC_BRK	19
T_REC_XTP	69
T_REC_HLD	41
T_REC_XHO	15
T_REC_STR	29
T_REC_BST	0
T_REC_XST	1
T_REC_TTP	58
T_REC_THO	3
T_REC_SLD	30
T_REC_ALL	530
T_NUM_TAP	422
T_NUM_BRK	19
T_NUM_HLD	59
T_NUM_SLD	30
T_NUM_ALL	530
T_JUDGE_TAP	441
T_JUDGE_HLD	178
T_JUDGE_SLD	30
T_JUDGE_ALL	649
TTM_EACHPAIRS	107
TTM_SCR_TAP	211000
TTM_SCR_BRK	49400
TTM_SCR_HLD	59000
TTM_SCR_SLD	45000
TTM_SCR_ALL	364400
TTM_SCR_S	351650
TTM_SCR_SS	362500
TTM_RAT_ACV	10052

