VERSION	0.00.00	1.03.00
FES_MODE	0
BPM_DEF	150.000	150.000	150.000	150.000
MET_DEF	4	4
RESOLUTION	384
CLK_DEF	384
COMPATIBLE_CODE	MA2

BPM	0	0	150.000
MET	0	0	4	4
MET	69	0	4	3
MET	69	288	4	4

XHO	1	0	5	384
HLD	2	0	4	384
HLD	3	0	3	192
TAP	3	192	2
TAP	3	288	1
TAP	4	0	0
TAP	4	96	0
TAP	4	96	7
BRK	4	192	1
BRK	4	192	6
TAP	5	0	1
TAP	5	96	1
TAP	5	192	0
TAP	5	192	1
TAP	5	288	0
TAP	5	288	1
TAP	6	0	7
TAP	6	96	7
XTP	6	192	0
XTP	6	192	6
TAP	7	0	6
TAP	7	96	6
TAP	7	192	6
TAP	7	192	7
TAP	7	288	6
TAP	7	288	7
TAP	8	0	0
TAP	8	96	0
TAP	8	96	7
XTP	8	192	1
XTP	8	192	6
HLD	9	0	5	192
TAP	9	192	4
TAP	9	288	4
HLD	10	0	3	192
TAP	10	192	4
TAP	10	288	4
HLD	11	0	5	192
TAP	11	192	4
TAP	11	288	3
TAP	12	0	2
TAP	12	96	2
XTP	12	192	1
XTP	12	192	3
TAP	13	0	2
TAP	13	96	2
TAP	13	192	2
TAP	13	192	3
TAP	14	0	5
TAP	14	96	5
TAP	14	192	4
TAP	14	192	5
TAP	15	0	2
TAP	15	96	2
TAP	15	192	1
TAP	15	288	1
TAP	16	0	0
TAP	16	96	0
TAP	16	96	7
XTP	16	192	1
XTP	16	192	6
TAP	17	0	6
TAP	17	96	6
TAP	17	192	6
TAP	17	192	7
TAP	17	288	6
TAP	17	288	7
TAP	18	0	1
TAP	18	96	0
TAP	18	96	1
XTP	18	192	2
XTP	18	192	7
TAP	19	0	1
TAP	19	96	1
TAP	19	192	0
TAP	19	192	1
TAP	19	288	0
TAP	19	288	1
TAP	20	0	7
TAP	20	96	0
TAP	20	96	7
XTP	20	192	1
XTP	20	192	6
HLD	21	0	2	192
TAP	21	192	3
TAP	21	288	4
HLD	22	0	5	192
TAP	22	192	4
TAP	22	288	3
XHO	23	0	2	144
XHO	23	0	4	144
XTP	23	240	3
XTP	23	288	3
TAP	24	0	4
TAP	24	96	5
XTP	24	192	4
XTP	24	192	6
HLD	25	0	5	192
HLD	25	192	4	192
HLD	26	0	3	192
XTP	26	192	2
TAP	27	0	1
TAP	27	96	1
TAP	27	192	0
TAP	27	288	0
TAP	28	0	7
TAP	28	96	0
TAP	28	96	7
BRK	28	192	1
BRK	28	192	6
STR	29	0	7
SXR	29	0	7	96	480	3
STR	31	0	1
SXL	31	0	1	96	480	5
STR	33	0	6
SXR	33	0	6	96	480	2
TAP	35	0	2
TAP	35	96	3
STR	35	192	3
SI_	35	192	3	96	192	0
STR	35	192	4
SI_	35	192	4	96	192	7
TAP	37	0	1
TAP	37	96	0
TAP	37	96	1
TAP	37	192	1
TAP	37	288	0
TAP	37	288	1
TAP	38	0	6
TAP	38	96	6
TAP	38	96	7
XTP	38	192	0
XTP	38	192	5
HLD	39	0	5	96
TAP	39	96	4
HLD	39	192	2	96
TAP	39	288	3
TAP	40	0	5
TAP	40	96	4
TAP	40	96	5
XTP	40	192	3
XTP	40	192	6
TAP	41	0	6
TAP	41	96	6
TAP	41	96	7
TAP	41	192	6
TAP	41	288	6
TAP	41	288	7
TAP	42	0	1
TAP	42	96	0
TAP	42	96	1
XTP	42	192	2
XTP	42	192	7
HLD	43	0	2	96
TAP	43	96	3
HLD	43	192	5	96
TAP	43	288	4
XTP	44	0	3
XTP	44	0	4
XTP	44	96	2
XTP	44	96	5
BRK	44	192	1
BRK	44	192	6
TAP	45	0	7
TAP	45	96	6
TAP	45	192	5
TAP	45	288	4
TAP	45	288	5
TAP	46	0	3
TAP	46	96	2
TAP	46	192	0
TAP	46	192	1
TAP	47	0	7
TAP	47	96	7
TAP	47	192	0
TAP	47	192	7
STR	47	288	0
SCR	47	288	0	96	192	3
STR	47	288	7
SCL	47	288	7	96	192	4
XTP	48	288	3
XTP	48	288	4
HLD	49	0	2	384
HLD	50	0	3	384
HLD	51	0	4	384
XTP	52	0	5
TTP	53	0	6	B	0	L1
TTP	53	192	4	B	0	L1
TTP	54	0	3	B	0	L1
TTP	54	192	1	B	0	L1
THO	55	0	0	384	C	1	L1
STR	57	0	0
SI_	57	0	0	96	192	5
STR	57	0	1
SI_	57	0	1	96	192	4
STR	58	0	6
SI_	58	0	6	96	192	3
STR	58	0	7
SI_	58	0	7	96	192	2
XTP	59	0	1
XTP	59	96	1
TAP	59	192	0
TAP	59	288	0
TAP	60	0	0
TAP	60	0	7
TAP	60	96	0
TAP	60	96	7
BRK	60	192	1
BRK	60	192	6
STR	61	0	0
SXL	61	0	0	96	480	4
STR	63	0	6
SXR	63	0	6	96	480	2
STR	65	0	1
SXL	65	0	1	96	480	5
TAP	67	0	6
TAP	67	96	6
TAP	67	192	0
TAP	67	192	7
XHO	67	288	1	240
XHO	67	288	6	240
XHO	69	288	5	384
HLD	70	288	4	384
HLD	71	288	3	384
XTP	72	288	2
XTP	73	96	2
TAP	73	288	3
TAP	74	0	3
TAP	74	96	3
TAP	74	192	3
TAP	74	288	4
TAP	75	0	4
TAP	75	96	4
TAP	75	192	4
XTP	75	288	5
XTP	76	0	5
TAP	76	96	6
TAP	76	192	6
TAP	76	288	0
TAP	76	288	7
TAP	77	0	0
TAP	77	0	7
BRK	77	96	1
BRK	77	96	6
TAP	77	288	6
TAP	78	0	6
TAP	78	0	7
TAP	78	96	5
TAP	78	192	4
TAP	78	192	5
TAP	78	288	6
TAP	79	0	6
TAP	79	0	7
XTP	79	96	0
XTP	79	96	5
HLD	79	288	5	96
TAP	80	0	4
HLD	80	96	2	96
TAP	80	192	3
TAP	80	288	4
TAP	81	0	3
TAP	81	0	4
XTP	81	96	2
XTP	81	96	5
TAP	81	288	1
TAP	82	0	0
TAP	82	0	1
TAP	82	96	2
TAP	82	192	2
TAP	82	192	3
TAP	82	288	1
TAP	83	0	0
TAP	83	0	1
XTP	83	96	2
XTP	83	96	7
HLD	83	288	2	96
TAP	84	0	3
HLD	84	96	5	96
TAP	84	192	4
XTP	84	288	3
XTP	84	288	4
XTP	85	0	2
XTP	85	0	5
BRK	85	96	1
BRK	85	96	6
TAP	85	288	0
TAP	86	0	1
TAP	86	96	2
TAP	86	192	2
TAP	86	192	3
TAP	86	288	4
TAP	87	0	5
TAP	87	96	6
TAP	87	192	6
TAP	87	192	7
TAP	87	288	5
TAP	88	0	4
TAP	88	96	3
TAP	88	192	2
TAP	88	288	1
XTP	89	0	0
XTP	89	0	7
BRK	89	96	1
BRK	89	96	6
TAP	89	288	1
TAP	90	0	0
TAP	90	96	6
TAP	90	96	7
TAP	90	192	6
TAP	90	192	7
TAP	90	288	5
TAP	91	0	4
XTP	91	96	2
XTP	91	96	3
TAP	91	288	1
TAP	92	0	2
TAP	92	96	3
STR	92	192	3
SI_	92	192	3	96	192	0
STR	92	192	4
SI_	92	192	4	96	192	7
XTP	93	192	1
XTP	93	192	6

T_REC_TAP	191
T_REC_BRK	14
T_REC_XTP	52
T_REC_HLD	23
T_REC_XHO	6
T_REC_STR	16
T_REC_BST	0
T_REC_XST	0
T_REC_TTP	4
T_REC_THO	1
T_REC_SLD	16
T_REC_ALL	323
T_NUM_TAP	263
T_NUM_BRK	14
T_NUM_HLD	30
T_NUM_SLD	16
T_NUM_ALL	323
T_JUDGE_TAP	277
T_JUDGE_HLD	140
T_JUDGE_SLD	16
T_JUDGE_ALL	433
TTM_EACHPAIRS	77
TTM_SCR_TAP	131500
TTM_SCR_BRK	36400
TTM_SCR_HLD	30000
TTM_SCR_SLD	24000
TTM_SCR_ALL	221900
TTM_SCR_S	213900
TTM_SCR_SS	220500
TTM_RAT_ACV	10063

