VERSION	0.00.00	1.03.00
FES_MODE	0
BPM_DEF	150.000	150.000	150.000	150.000
MET_DEF	4	4
RESOLUTION	384
CLK_DEF	384
COMPATIBLE_CODE	MA2

BPM	0	0	150.000
MET	0	0	4	4
MET	69	0	4	3
MET	69	288	4	4

TAP	5	0	0
TAP	6	0	0
TAP	7	0	7
BRK	8	0	7
TAP	9	0	0
TAP	10	0	0
TAP	11	0	1
TAP	11	192	1
TAP	12	0	2
TAP	12	96	2
TAP	12	192	2
TAP	13	0	3
TAP	14	0	3
TAP	15	0	4
TAP	15	192	4
TAP	16	0	5
TAP	16	96	5
TAP	16	192	5
STR	17	0	6
SI_	17	0	6	96	288	1
STR	19	0	2
SI_	19	0	2	96	288	5
TAP	21	0	7
TAP	21	192	7
TAP	22	0	6
TAP	22	192	6
XHO	23	0	5	192
TAP	24	0	4
TAP	24	96	4
TAP	24	192	4
HLD	25	0	3	576
HLD	25	0	4	576
TAP	27	0	4
TAP	27	192	4
TAP	28	0	3
TAP	28	96	4
XTP	28	192	3
TTP	29	0	4	B	0	L1
TTP	29	0	5	B	0	L1
TTP	30	0	6	B	0	L1
TTP	31	0	0	B	0	L1
TTP	31	0	7	B	0	L1
TTP	32	0	1	B	0	L1
TTP	33	0	2	B	0	L1
TTP	33	0	3	B	0	L1
TTP	34	0	4	B	0	L1
THO	35	0	0	336	C	1	L1
TAP	37	0	0
TAP	37	96	0
TAP	37	192	0
TAP	38	0	1
TAP	38	96	1
TAP	38	192	1
TAP	39	0	2
TAP	39	96	2
TAP	39	192	2
TAP	40	0	3
TAP	40	96	3
TAP	40	192	3
TAP	40	192	4
TAP	41	0	4
TAP	41	96	4
TAP	41	192	4
TAP	42	0	5
TAP	42	96	5
TAP	42	192	5
TAP	43	0	6
TAP	43	96	6
TAP	43	192	6
TAP	44	0	7
TAP	44	96	7
TAP	44	192	0
TAP	44	192	7
XTP	45	0	0
XTP	45	0	1
XTP	45	192	0
XTP	45	192	1
XTP	46	0	0
XTP	46	0	1
TAP	46	192	7
XTP	47	0	6
XTP	47	0	7
XTP	47	192	6
XTP	47	192	7
HLD	48	0	6	192
HLD	48	0	7	192
XTP	48	288	6
TAP	53	0	7
TAP	54	0	7
TAP	55	0	0
XTP	56	0	0
XTP	56	0	7
TAP	57	0	7
TAP	57	96	7
TAP	57	192	7
TAP	58	0	6
TAP	58	96	6
TAP	58	192	6
TAP	59	0	5
TAP	59	96	5
TAP	59	192	5
XTP	60	0	3
XTP	60	0	4
TTP	61	0	2	B	0	L1
TTP	61	0	3	B	0	L1
TTP	62	0	1	B	0	L1
TTP	63	0	0	B	0	L1
TTP	63	0	7	B	0	L1
TTP	64	0	6	B	0	L1
TTP	65	0	4	B	0	L1
TTP	65	0	5	B	0	L1
TTP	66	0	3	B	0	L1
THO	67	0	0	336	C	1	L1
TAP	69	288	0
TAP	70	96	0
TAP	70	288	0
TAP	71	0	0
TAP	71	96	0
TAP	71	288	7
TAP	72	96	7
TAP	72	288	7
TAP	73	0	7
TAP	73	96	7
TAP	73	288	0
TAP	74	96	0
TAP	74	288	1
TAP	75	0	1
TAP	75	96	0
TAP	75	96	1
TAP	75	288	7
TAP	76	96	7
BRK	76	288	0
BRK	76	288	7
TAP	77	288	7
TAP	78	0	7
TAP	78	96	7
TAP	78	288	6
TAP	79	0	6
TAP	79	96	6
TAP	79	288	5
TAP	80	0	5
TAP	80	96	4
TAP	80	192	4
TAP	80	288	3
TAP	81	0	3
TAP	81	96	3
TAP	81	96	4
TAP	81	288	3
TAP	82	0	3
TAP	82	96	3
TAP	82	288	2
TAP	83	0	2
TAP	83	96	2
TAP	83	288	1
TAP	84	0	1
TAP	84	96	0
TAP	84	192	0
TAP	84	288	7
TAP	85	0	7
TAP	85	96	0
TAP	85	96	7
XTP	85	288	6
XTP	85	288	7
XTP	86	96	6
XTP	86	96	7
XTP	86	288	6
XTP	86	288	7
TAP	87	96	0
XTP	87	288	0
XTP	87	288	1
XTP	88	96	0
XTP	88	96	1
HLD	88	288	0	192
HLD	88	288	1	192
XTP	89	288	2
XTP	89	288	3
XTP	90	96	2
XTP	90	96	3
XTP	90	288	2
XTP	90	288	3
TAP	91	96	4
XTP	91	288	4
XTP	91	288	5
XTP	92	96	4
XTP	92	96	5
HLD	92	288	4	192
HLD	92	288	5	192
XTP	93	192	5

T_REC_TAP	115
T_REC_BRK	3
T_REC_XTP	37
T_REC_HLD	8
T_REC_XHO	1
T_REC_STR	2
T_REC_BST	0
T_REC_XST	0
T_REC_TTP	18
T_REC_THO	2
T_REC_SLD	2
T_REC_ALL	188
T_NUM_TAP	172
T_NUM_BRK	3
T_NUM_HLD	11
T_NUM_SLD	2
T_NUM_ALL	188
T_JUDGE_TAP	175
T_JUDGE_HLD	66
T_JUDGE_SLD	2
T_JUDGE_ALL	243
TTM_EACHPAIRS	27
TTM_SCR_TAP	86000
TTM_SCR_BRK	7800
TTM_SCR_HLD	11000
TTM_SCR_SLD	3000
TTM_SCR_ALL	107800
TTM_SCR_S	104300
TTM_SCR_SS	107500
TTM_RAT_ACV	10027

