VERSION	0.00.00	1.03.00
FES_MODE	0
BPM_DEF	170.000	170.000	170.000	170.000
MET_DEF	4	4
RESOLUTION	384
CLK_DEF	384
COMPATIBLE_CODE	MA2

BPM	0	0	170.000
MET	0	0	4	4

TAP	1	288	4
HLD	1	336	3	96
TAP	2	48	4
TAP	2	96	4
HLD	2	144	3	96
TAP	2	240	4
TAP	2	288	4
HLD	2	336	3	96
TAP	3	48	4
TAP	3	96	4
HLD	3	144	3	96
TAP	3	240	4
TAP	3	288	4
HLD	3	336	3	96
TAP	4	48	5
TAP	4	96	5
HLD	4	144	3	96
TAP	4	240	4
TAP	4	288	4
TAP	4	336	3
TAP	5	0	2
TAP	5	0	5
TAP	5	48	3
TAP	5	72	4
TAP	5	96	3
TAP	5	120	4
TAP	5	144	3
XTP	5	192	1
XTP	5	192	3
XTP	5	264	0
XTP	5	264	7
XTP	5	336	4
XTP	5	336	6
XTP	6	0	4
XST	6	0	6
SI_	6	0	6	96	48	4
TAP	6	96	3
STR	6	192	1
SI_	6	192	1	96	48	3
TAP	6	288	4
TAP	7	0	5
STR	7	48	5
SCR	7	48	5	96	144	0
XTP	7	144	4
XTP	7	240	4
TAP	7	336	3
STR	8	0	3
SI_	8	0	3	96	48	1
TAP	8	96	5
STR	8	192	4
SI_	8	192	4	96	48	6
TAP	8	288	2
TAP	9	0	3
STR	9	48	3
SCL	9	48	3	96	144	7
XTP	9	144	7
XTP	9	240	6
TAP	9	336	4
STR	10	0	4
SI_	10	0	4	96	48	6
TAP	10	96	3
STR	10	192	2
SI_	10	192	2	96	48	4
TAP	10	288	6
TAP	11	0	7
STR	11	48	7
SCL	11	48	7	96	144	3
XTP	11	144	3
XTP	11	240	2
TAP	11	336	1
STR	12	0	1
SI_	12	0	1	96	48	4
TAP	12	96	4
HLD	12	192	6	96
TAP	12	288	7
XTP	12	336	6
XTP	12	336	7
XTP	13	48	0
XTP	13	48	1
XTP	13	144	2
XTP	13	144	5
TAP	13	240	3
TAP	13	240	4
TAP	13	288	3
TAP	13	288	4
HLD	14	0	5	96
TAP	14	96	4
TAP	14	144	4
HLD	14	192	6	96
TAP	14	288	4
TAP	14	336	4
HLD	15	0	5	96
TAP	15	96	3
TAP	15	144	3
TAP	15	144	5
TAP	15	240	2
TAP	15	240	4
TAP	15	288	2
TAP	15	288	4
HLD	16	0	1	96
TAP	16	96	3
TAP	16	144	3
HLD	16	192	2	96
TAP	16	288	3
TAP	16	336	3
STR	17	0	0
SXL	17	0	0	96	120	0
TAP	17	96	4
TAP	17	144	4
TAP	17	240	6
XTP	17	288	1
XTP	17	288	6
HLD	18	0	2	96
TAP	18	96	3
TAP	18	144	3
HLD	18	192	1	96
TAP	18	288	3
TAP	18	336	3
HLD	19	0	2	96
TAP	19	96	4
TAP	19	144	2
TAP	19	144	4
TAP	19	240	3
TAP	19	240	5
TAP	19	288	3
TAP	19	288	5
TTP	20	0	3	B	0	M1
TTP	20	0	3	E	0	M1
TTP	20	0	4	B	0	M1
TTP	20	0	5	B	0	M1
TAP	20	96	0
TAP	20	96	1
TTP	20	192	2	B	0	M1
TTP	20	192	3	B	0	M1
TTP	20	192	4	B	0	M1
TTP	20	192	5	E	0	M1
TAP	20	288	6
TAP	20	288	7
TTP	21	0	2	B	0	M1
TTP	21	0	3	B	0	M1
TTP	21	0	4	B	0	M1
TTP	21	0	5	B	0	M1
XTP	21	96	0
XTP	21	96	7
XTP	21	144	0
XTP	21	144	7
TAP	21	240	2
TAP	21	240	5
TAP	21	288	2
TAP	21	288	5
HLD	22	0	5	96
TAP	22	96	4
TAP	22	144	4
HLD	22	192	6	96
TAP	22	288	4
TAP	22	336	4
HLD	23	0	5	96
TAP	23	96	3
TAP	23	144	3
TAP	23	144	5
TAP	23	240	0
TAP	23	240	6
TAP	23	288	0
TAP	23	288	6
HLD	24	0	1	96
TAP	24	96	3
TAP	24	144	3
HLD	24	192	2	96
TAP	24	288	3
TAP	24	336	3
TAP	25	0	1
STR	25	0	3
SI_	25	0	3	96	48	7
TAP	25	96	0
TAP	25	144	0
TAP	25	240	2
TAP	25	240	6
TAP	25	288	2
XTP	25	288	6
TAP	26	0	1
TAP	26	0	3
TAP	26	96	0
TAP	26	96	7
TAP	26	192	4
TAP	26	192	6
STR	26	288	3
SXL	26	288	3	96	168	4
SLL	26	288	3	96	168	4
TAP	26	288	4
XTP	27	240	7
XTP	27	288	0
XTP	27	288	7
TAP	28	0	6
TAP	28	48	6
TAP	28	96	4
TAP	28	144	4
TAP	28	192	3
TAP	28	240	3
BST	28	288	2
SCL	28	288	2	96	216	2
SCR	28	288	2	96	216	2
XTP	29	288	1
XTP	29	288	6
STR	30	0	2
SI_	30	0	2	96	48	4
TAP	30	96	5
TAP	30	144	5
STR	30	192	6
SI_	30	192	6	96	48	0
TAP	30	288	1
TAP	30	336	1
STR	31	0	2
SI_	31	0	2	96	48	4
TAP	31	96	5
TAP	31	144	5
HLD	31	192	6	96
TAP	31	288	7
STR	32	0	5
SCL	32	0	5	96	96	2
TAP	32	96	1
HLD	32	144	1	96
TAP	32	240	0
TAP	32	288	0
TAP	32	288	1
STR	33	0	2
SCR	33	0	2	96	96	5
TAP	33	96	6
HLD	33	144	6	96
TAP	33	240	7
TAP	33	288	6
TAP	33	288	7
TAP	34	0	0
STR	34	0	5
SI_	34	0	5	96	48	3
TAP	34	96	2
TAP	34	144	2
STR	34	192	1
SI_	34	192	1	96	48	7
TAP	34	288	6
TAP	34	336	6
STR	35	0	5
SI_	35	0	5	96	48	3
TAP	35	96	2
TAP	35	144	2
TAP	35	192	0
TAP	35	192	1
TAP	35	288	2
TAP	35	288	7
STR	36	0	6
SCR	36	0	6	96	96	1
TAP	36	96	1
STR	36	192	2
SCR	36	192	2	96	96	5
STR	36	288	5
SXR	36	288	5	96	240	2
HLD	37	0	6	192
TAP	37	240	6
XTP	37	288	0
XTP	37	288	6
STR	38	0	3
SI_	38	0	3	96	48	5
TAP	38	96	6
TAP	38	144	6
STR	38	192	7
SI_	38	192	7	96	48	1
TAP	38	288	2
TAP	38	336	2
STR	39	0	3
SI_	39	0	3	96	48	5
TAP	39	96	6
TAP	39	144	6
HLD	39	192	6	96
TAP	39	288	7
STR	40	0	0
SI_	40	0	0	96	48	6
TAP	40	96	5
TAP	40	144	5
STR	40	192	4
SI_	40	192	4	96	48	1
STR	40	288	0
SSL	40	288	0	96	144	4
BRK	41	0	7
XTP	41	240	2
XTP	41	240	5
XTP	41	288	2
XTP	41	288	5
TAP	42	0	3
TAP	42	0	6
TAP	42	48	2
TAP	42	72	3
TAP	42	96	2
TAP	42	144	1
TAP	42	144	4
TAP	42	192	5
TAP	42	216	4
TAP	42	240	5
TAP	42	288	3
TAP	42	288	4
HLD	43	0	0	192
BRK	43	0	4
TAP	43	192	7
TAP	43	240	1
TAP	43	240	6
XTP	43	288	2
XTP	43	288	5
TAP	44	0	2
STR	44	0	3
SI_	44	0	3	96	48	6
STR	44	96	1
SI_	44	96	1	96	48	4
TAP	44	192	5
HLD	44	240	5	96
HLD	44	336	7	96
STR	45	48	1
SCR	45	48	1	96	192	6
TTP	45	144	6	E	0	M1
TTP	45	192	5	E	0	M1
TTP	45	240	4	E	0	M1
TTP	45	288	3	E	0	M1
TTP	45	336	2	E	0	M1
TAP	46	48	7
TAP	46	96	0
TAP	46	144	1
TAP	46	192	2
TAP	46	192	3
TAP	46	240	4
TAP	46	288	0
STR	46	336	6
SI_	46	336	6	96	48	2
TAP	47	48	2
TAP	47	48	6
TAP	47	96	1
TAP	47	144	0
STR	47	192	0
SI_	47	192	0	96	48	2
STR	47	192	7
SI_	47	192	7	96	48	3
TAP	47	288	0
TAP	47	288	7
XST	48	0	4
SI_	48	0	4	96	48	1
TAP	48	0	5
STR	48	96	6
SI_	48	96	6	96	48	3
TAP	48	192	2
HLD	48	240	2	96
HLD	48	336	0	96
STR	49	48	6
SCL	49	48	6	96	192	1
TTP	49	144	2	E	0	M1
TTP	49	192	3	E	0	M1
TTP	49	240	4	E	0	M1
TTP	49	288	5	E	0	M1
TTP	49	336	6	E	0	M1
TAP	50	48	0
TAP	50	96	7
TAP	50	144	4
TAP	50	144	6
STR	50	192	5
SCL	50	192	5	96	48	2
TAP	50	240	5
TAP	50	288	1
STR	50	336	0
SI_	50	336	0	96	48	4
TAP	51	48	4
STR	51	96	6
SCR	51	96	6	96	96	3
BRK	51	192	3
STR	52	0	4
SI_	52	0	4	96	48	1
TAP	52	0	5
STR	52	96	6
SI_	52	96	6	96	48	3
TAP	52	192	3
HLD	52	240	2	96
STR	52	336	0
SI_	52	336	0	96	48	6
STR	53	48	1
SCR	53	48	1	96	192	6
TTP	53	144	6	E	0	M1
TTP	53	192	5	E	0	M1
TTP	53	240	4	E	0	M1
TTP	53	288	3	E	0	M1
TTP	53	336	2	E	0	M1
TAP	54	48	0
TAP	54	48	7
TAP	54	96	1
TAP	54	144	2
TAP	54	192	3
TAP	54	192	5
TAP	54	240	4
TAP	54	288	0
STR	54	336	6
SI_	54	336	6	96	48	3
TAP	55	48	3
TAP	55	48	6
TAP	55	96	2
TAP	55	144	1
STR	55	192	0
SI_	55	192	0	96	48	5
STR	55	192	1
SI_	55	192	1	96	48	4
XTP	55	288	0
XTP	55	288	1
TAP	56	0	2
XST	56	0	3
SI_	56	0	3	96	48	6
STR	56	96	1
SI_	56	96	1	96	48	4
TAP	56	192	5
HLD	56	240	5	96
STR	56	336	7
SI_	56	336	7	96	48	1
STR	57	48	6
SCL	57	48	6	96	192	1
TTP	57	144	2	E	0	M1
TTP	57	192	3	E	0	M1
TTP	57	240	4	E	0	M1
TTP	57	288	5	E	0	M1
TTP	57	336	6	E	0	M1
TAP	58	48	0
TAP	58	48	7
STR	58	96	1
SI_	58	96	1	96	48	4
TAP	58	144	1
STR	58	192	6
SI_	58	192	6	96	48	2
TAP	58	240	6
TAP	58	288	0
STR	58	336	0
SUR	58	336	0	96	144	6
TAP	59	48	6
TAP	59	96	7
TAP	59	144	7
STR	59	192	7
SSR	59	192	7	96	96	3
BRK	60	0	0
HLD	64	0	3	1056
TAP	64	96	4
TAP	64	288	4
TAP	65	96	4
TAP	65	288	4
TAP	66	96	4
HLD	66	288	4	288
TAP	67	0	2
TAP	67	48	2
TAP	67	96	2
TAP	67	144	2
TAP	67	192	2
TAP	67	240	2
TAP	67	288	2
TAP	67	288	4
BST	68	0	4
SI_	68	0	4	96	48	0
BRK	68	0	5
STR	68	96	6
SI_	68	96	6	96	48	2
TAP	68	192	2
HLD	68	240	1	96
STR	68	336	7
SI_	68	336	7	96	48	3
STR	69	48	0
SCR	69	48	0	96	192	6
TTP	69	144	6	E	0	M1
TTP	69	192	5	E	0	M1
TTP	69	240	0	C	0	M1
TTP	69	288	3	E	0	M1
TTP	69	336	2	E	0	M1
TAP	70	48	0
TAP	70	48	7
TAP	70	96	1
TAP	70	144	2
TAP	70	192	2
TAP	70	192	3
TAP	70	240	4
TAP	70	288	0
STR	70	336	5
SI_	70	336	5	96	48	1
TAP	71	48	1
TAP	71	48	5
TAP	71	96	2
TAP	71	144	3
TAP	71	192	3
STR	71	192	7
SI_	71	192	7	96	48	1
SI_	71	192	7	96	48	5
TAP	71	288	7
XTP	72	0	2
STR	72	0	3
SI_	72	0	3	96	48	7
STR	72	96	1
SI_	72	96	1	96	48	5
TAP	72	192	5
HLD	72	240	6	96
STR	72	336	0
SI_	72	336	0	96	48	4
STR	73	48	7
SCL	73	48	7	96	192	1
TTP	73	144	2	E	0	M1
TTP	73	192	3	E	0	M1
TTP	73	240	0	C	0	M1
TTP	73	288	5	E	0	M1
TTP	73	336	6	E	0	M1
TAP	74	48	0
TAP	74	48	7
STR	74	96	6
SI_	74	96	6	96	48	1
TAP	74	144	6
STR	74	192	2
SCR	74	192	2	96	48	5
TAP	74	240	2
TAP	74	288	5
STR	74	336	7
SI_	74	336	7	96	48	3
TAP	75	48	3
STR	75	96	1
SCL	75	96	1	96	96	4
BRK	75	192	3
STR	76	0	4
SI_	76	0	4	96	48	0
TAP	76	0	5
STR	76	96	6
SI_	76	96	6	96	48	2
TAP	76	192	2
HLD	76	240	1	96
STR	76	336	3
SI_	76	336	3	96	48	7
STR	77	48	0
SCR	77	48	0	96	192	6
TTP	77	144	7	E	0	M1
TTP	77	192	5	E	0	M1
TTP	77	240	0	C	0	M1
TTP	77	288	3	E	0	M1
TTP	77	336	1	E	0	M1
TAP	78	48	0
TAP	78	48	7
STR	78	96	1
SCR	78	96	1	96	48	4
TAP	78	96	6
TAP	78	192	4
STR	78	240	5
SI_	78	240	5	96	48	0
TAP	78	288	5
STR	78	336	4
SI_	78	336	4	96	48	1
TAP	79	0	4
STR	79	48	6
SI_	79	48	6	96	48	2
TAP	79	96	6
TAP	79	144	0
STR	79	192	0
SI_	79	192	0	96	48	4
SLL	79	192	0	96	48	4
BRK	79	288	0
XTP	80	0	2
XST	80	0	3
SI_	80	0	3	96	48	7
STR	80	96	1
SI_	80	96	1	96	48	5
TAP	80	192	5
HLD	80	240	6	96
STR	80	336	4
SI_	80	336	4	96	48	0
STR	81	48	7
SCL	81	48	7	96	192	1
TTP	81	144	1	E	0	M1
TTP	81	192	3	E	0	M1
TTP	81	240	0	C	0	M1
TTP	81	288	5	E	0	M1
TTP	81	336	7	E	0	M1
TAP	82	48	0
TAP	82	48	7
STR	82	96	6
SI_	82	96	6	96	48	2
TAP	82	144	6
STR	82	192	3
SI_	82	192	3	96	48	0
TAP	82	240	3
TAP	82	288	7
BST	82	336	7
SUL	82	336	7	96	144	1
TAP	83	48	1
TAP	83	96	0
TAP	83	144	0
STR	83	192	0
SI_	83	192	0	96	48	4
BST	83	288	4
SCR	83	288	4	96	576	3
TTP	84	0	0	C	1	M1
TAP	86	0	3
TAP	86	0	6
TAP	86	48	7
TAP	86	96	6
TAP	86	144	5
TAP	86	192	1
TAP	86	192	4
TAP	86	240	0
TAP	86	288	1
TAP	86	336	2
TAP	87	0	3
STR	87	0	5
SI_	87	0	5	96	48	2
TAP	87	48	2
TAP	87	96	1
TAP	87	144	0
HLD	87	192	0	96
XTP	87	288	7
BST	87	336	1
SLR	87	336	1	96	96	7
BRK	87	336	6
TAP	88	96	6
TAP	88	144	5
STR	88	192	4
SCR	88	192	4	96	48	7
TAP	88	288	1
TAP	88	336	2
STR	89	0	4
SCL	89	0	4	96	48	1
TAP	89	96	7
TAP	89	144	6
STR	89	192	4
SI_	89	192	4	96	48	0
TAP	89	288	1
TAP	89	336	1
TAP	90	0	1
TAP	90	0	7
TAP	90	48	2
TAP	90	96	3
TAP	90	96	6
TAP	90	144	7
TAP	90	192	0
TAP	90	192	6
TAP	90	240	5
TAP	90	288	1
TAP	90	288	4
TAP	90	336	0
TAP	91	0	0
TAP	91	0	7
TAP	91	48	1
STR	91	48	6
SCL	91	48	6	96	144	7
TTP	91	144	0	C	1	M1
TAP	92	0	0
TAP	92	0	6
TAP	92	48	6
TAP	92	96	2
TAP	92	96	5
TAP	92	144	5
TAP	92	192	1
TAP	92	192	6
TAP	92	240	6
TAP	92	288	3
TAP	92	288	5
TAP	92	336	5
TAP	93	0	0
TAP	93	0	6
TAP	93	48	6
TAP	93	96	2
TAP	93	96	5
TAP	93	144	5
STR	93	192	1
SI_	93	192	1	96	48	4
TAP	93	192	6
XTP	93	288	0
XTP	93	288	1
TAP	94	0	3
TAP	94	0	5
TAP	94	48	5
TAP	94	96	1
TAP	94	96	4
TAP	94	144	4
TAP	94	192	2
TAP	94	192	5
TAP	94	240	5
TAP	94	288	0
TAP	94	288	4
TAP	94	336	4
TAP	95	0	1
STR	95	0	5
SCL	95	0	5	96	96	2
TAP	95	48	1
TAP	95	96	1
TAP	95	144	1
STR	95	192	1
SI_	95	192	1	96	48	5
XTP	95	288	1
BRK	95	288	7
TAP	96	0	4
TAP	96	0	6
TAP	96	48	6
TAP	96	96	2
TAP	96	96	5
TAP	96	144	5
TAP	96	192	3
TAP	96	192	6
TAP	96	240	6
TAP	96	288	1
TAP	96	288	5
TAP	96	336	5
TAP	97	0	2
TAP	97	0	6
TAP	97	48	6
TAP	97	96	0
TAP	97	96	5
TAP	97	144	5
TAP	97	192	3
STR	97	192	6
SI_	97	192	6	96	48	3
XTP	97	288	6
XTP	97	288	7
TAP	98	0	1
TAP	98	0	4
TAP	98	48	0
TAP	98	96	0
TAP	98	96	7
TAP	98	144	1
TAP	98	168	6
TAP	98	192	1
TAP	98	216	6
TAP	98	240	2
TAP	98	264	5
TAP	98	288	3
TAP	98	312	4
TTP	98	336	0	C	1	M1

T_REC_TAP	368
T_REC_BRK	9
T_REC_XTP	49
T_REC_HLD	39
T_REC_XHO	0
T_REC_STR	91
T_REC_BST	5
T_REC_XST	4
T_REC_TTP	55
T_REC_THO	0
T_REC_SLD	104
T_REC_ALL	724
T_NUM_TAP	567
T_NUM_BRK	14
T_NUM_HLD	39
T_NUM_SLD	104
T_NUM_ALL	724
T_JUDGE_TAP	581
T_JUDGE_HLD	106
T_JUDGE_SLD	104
T_JUDGE_ALL	791
TTM_EACHPAIRS	111
TTM_SCR_TAP	283500
TTM_SCR_BRK	36400
TTM_SCR_HLD	39000
TTM_SCR_SLD	156000
TTM_SCR_ALL	514900
TTM_SCR_S	498100
TTM_SCR_SS	513500
TTM_RAT_ACV	10027

