VERSION	0.00.00	1.03.00
FES_MODE	0
BPM_DEF	170.000	170.000	170.000	170.000
MET_DEF	4	4
RESOLUTION	384
CLK_DEF	384
COMPATIBLE_CODE	MA2

BPM	0	0	170.000
MET	0	0	4	4

TAP	4	0	4
TAP	4	96	4
TAP	4	192	4
TAP	4	288	4
HLD	5	0	4	96
TAP	5	96	3
TAP	5	192	2
TAP	5	192	5
STR	6	0	7
SI_	6	0	7	96	96	3
STR	6	192	2
SI_	6	192	2	96	48	0
HLD	7	0	7	96
HLD	7	96	5	96
HLD	7	192	4	96
TAP	7	288	3
STR	8	0	2
SI_	8	0	2	96	96	5
STR	8	192	7
SI_	8	192	7	96	96	4
HLD	9	0	3	96
HLD	9	96	5	96
HLD	9	192	6	96
TAP	9	288	7
STR	10	0	0
SI_	10	0	0	96	96	4
STR	10	192	5
SI_	10	192	5	96	48	7
HLD	11	0	0	96
HLD	11	96	2	96
HLD	11	192	3	96
TAP	11	288	4
STR	12	0	5
SI_	12	0	5	96	96	2
STR	12	192	0
SI_	12	192	0	96	96	3
HLD	13	0	4	96
TAP	13	96	3
TAP	13	192	2
TAP	13	192	5
TAP	14	0	3
TAP	14	96	2
TAP	14	96	3
TAP	14	192	4
TAP	14	288	4
TAP	14	288	5
HLD	15	0	6	96
TAP	15	96	4
TAP	15	192	2
TAP	15	288	1
TAP	15	288	3
TAP	16	0	4
TAP	16	96	4
TAP	16	96	5
TAP	16	192	6
STR	16	288	0
SI_	16	288	0	96	96	3
STR	17	0	7
SI_	17	0	7	96	96	4
TAP	17	288	2
TAP	17	288	3
TAP	18	0	4
TAP	18	96	4
TAP	18	96	5
TAP	18	192	3
TAP	18	288	2
TAP	18	288	3
HLD	19	0	1	96
TAP	19	96	3
TAP	19	192	5
TAP	19	288	4
TAP	19	288	6
TAP	20	0	3
TAP	20	96	2
TAP	20	96	3
TAP	20	192	1
STR	20	288	1
SI_	20	288	1	96	96	6
STR	21	0	5
SI_	21	0	5	96	96	2
TAP	21	288	1
TAP	22	0	3
TAP	22	96	2
TAP	22	96	3
TAP	22	192	5
TAP	22	240	5
TAP	22	288	4
HLD	23	0	6	96
TAP	23	96	4
TAP	23	192	2
TAP	23	240	2
TAP	23	288	1
TAP	23	288	3
TAP	24	0	4
TAP	24	96	4
TAP	24	96	5
TAP	24	192	7
TAP	24	240	7
STR	24	288	0
SI_	24	288	0	96	96	4
STR	25	0	7
SI_	25	0	7	96	96	3
TAP	25	288	2
TAP	25	288	3
TAP	26	0	4
TAP	26	96	4
TAP	26	96	5
TAP	26	192	2
TAP	26	240	2
TAP	26	288	3
HLD	27	0	1	96
TAP	27	96	3
TAP	27	192	5
TAP	27	240	5
TAP	27	288	4
TAP	27	288	6
TAP	28	0	3
TAP	28	96	2
TAP	28	96	3
TAP	28	192	0
STR	28	288	1
SLR	28	288	1	96	192	7
STR	28	288	6
SLL	28	288	6	96	192	0
TAP	29	288	0
TAP	29	288	7
TAP	30	0	5
HLD	30	96	5	576
TAP	30	192	4
TAP	30	240	4
TAP	30	288	4
TAP	31	0	3
TAP	31	96	4
TAP	31	192	2
STR	31	288	3
SCR	31	288	3	96	192	1
TAP	32	336	7
TAP	33	0	7
TAP	33	96	0
TAP	33	96	6
TAP	33	144	0
TAP	33	144	6
TAP	33	240	3
TAP	33	240	4
TAP	33	288	3
TAP	33	288	4
TAP	34	0	2
HLD	34	96	2	576
TAP	34	192	3
TAP	34	288	3
TAP	35	0	4
TAP	35	96	3
TAP	35	192	5
STR	35	288	4
SSL	35	288	4	96	240	0
XTP	36	336	0
XHO	37	0	0	192
TAP	37	192	6
TAP	37	288	3
TAP	37	288	4
TAP	38	0	5
TAP	38	96	4
TAP	38	96	5
TAP	38	192	6
TAP	38	240	6
TAP	38	288	7
TAP	39	0	4
TAP	39	0	5
TAP	39	96	3
TAP	39	144	3
TAP	39	192	4
TAP	39	288	3
TAP	39	288	5
TAP	40	0	2
TAP	40	96	2
TAP	40	96	3
TAP	40	192	1
TAP	40	240	1
TAP	40	288	0
TAP	41	0	2
TAP	41	0	3
TAP	41	96	4
TAP	41	144	4
TAP	41	192	3
TAP	41	288	2
TAP	41	288	4
HLD	42	0	5	96
HLD	42	96	7	96
HLD	42	192	0	96
HLD	42	288	2	96
TAP	43	0	7
TAP	43	48	7
TAP	43	96	0
BRK	43	192	2
BRK	43	192	5
TAP	44	0	0
TAP	44	0	1
TAP	44	96	3
TAP	44	96	4
TAP	44	192	7
STR	44	240	7
SI_	44	240	7	96	48	3
STR	44	336	0
SI_	44	336	0	96	48	4
STR	45	48	5
SCR	45	48	5	96	144	2
TAP	46	0	1
TAP	46	48	1
TAP	46	96	0
TAP	46	192	2
TAP	46	192	3
TAP	46	288	4
TAP	46	288	5
HLD	47	0	6	96
HLD	47	96	4	96
HLD	47	192	3	96
TAP	47	288	1
TAP	48	0	6
TAP	48	0	7
TAP	48	96	3
TAP	48	96	4
TAP	48	192	0
STR	48	240	0
SI_	48	240	0	96	48	4
STR	48	336	7
SI_	48	336	7	96	48	3
STR	49	48	2
SCL	49	48	2	96	144	5
TAP	50	0	6
TAP	50	48	6
TAP	50	96	7
TAP	50	192	4
TAP	50	192	5
STR	50	288	2
SCR	50	288	2	96	96	5
TAP	50	288	3
TTP	51	192	0	C	1	M1
TTP	51	192	3	B	0	M1
TTP	51	192	4	B	0	M1
TAP	52	0	6
TAP	52	0	7
TAP	52	96	3
TAP	52	96	4
TAP	52	192	0
STR	52	240	0
SI_	52	240	0	96	48	4
STR	52	336	7
SI_	52	336	7	96	48	3
STR	53	48	2
SCL	53	48	2	96	144	5
TAP	54	0	6
TAP	54	48	6
TAP	54	96	7
TAP	54	192	4
TAP	54	192	5
TAP	54	288	2
TAP	54	288	3
HLD	55	0	1	96
HLD	55	96	3	96
HLD	55	192	4	96
TAP	55	288	6
TAP	56	0	0
TAP	56	0	1
TAP	56	96	3
TAP	56	96	4
TAP	56	192	7
STR	56	240	7
SI_	56	240	7	96	48	3
STR	56	336	0
SI_	56	336	0	96	48	4
STR	57	48	5
SCR	57	48	5	96	144	2
TAP	58	0	1
TAP	58	48	1
TAP	58	96	0
TAP	58	192	2
TAP	58	192	3
TAP	58	288	4
STR	58	288	5
SCL	58	288	5	96	96	2
BRK	59	192	0
BRK	59	192	6
HLD	60	0	2	384
TTP	60	288	4	E	0	M1
HLD	61	0	5	384
TTP	61	288	4	E	0	M1
HLD	62	0	2	384
TTP	62	288	4	E	0	M1
HLD	63	0	5	384
TTP	63	288	4	E	0	M1
HLD	64	0	1	384
TAP	64	96	3
TAP	64	288	3
HLD	65	0	6	384
TAP	65	96	4
TAP	65	288	4
HLD	66	0	1	288
TAP	66	96	3
TAP	66	192	4
STR	66	288	5
SXL	66	288	5	96	240	3
BRK	67	288	0
TAP	68	0	6
TAP	68	0	7
TAP	68	96	2
TAP	68	96	4
TAP	68	192	0
STR	68	240	0
SI_	68	240	0	96	48	4
STR	68	336	6
SI_	68	336	6	96	48	2
STR	69	48	1
SCL	69	48	1	96	144	4
TAP	70	0	6
TAP	70	48	6
TAP	70	96	7
TAP	70	144	5
TAP	70	192	4
TAP	70	192	6
TAP	70	288	2
TAP	70	288	3
HLD	71	0	1	96
HLD	71	96	3	96
HLD	71	192	4	96
TAP	71	288	6
TAP	72	0	0
TAP	72	0	1
TAP	72	96	3
TAP	72	96	5
TAP	72	192	7
STR	72	240	7
SI_	72	240	7	96	48	3
STR	72	336	1
SI_	72	336	1	96	48	5
STR	73	48	6
SCR	73	48	6	96	144	3
TAP	74	0	1
TAP	74	48	1
TAP	74	96	0
TAP	74	144	2
TAP	74	192	1
TAP	74	192	3
TAP	74	288	4
STR	74	288	5
SCL	74	288	5	96	96	2
TTP	75	192	0	C	1	M1
TTP	75	192	3	B	0	M1
TTP	75	192	4	B	0	M1
TAP	76	0	0
TAP	76	0	1
TAP	76	96	3
TAP	76	96	5
TAP	76	192	7
STR	76	240	7
SI_	76	240	7	96	48	3
STR	76	336	1
SI_	76	336	1	96	48	5
STR	77	48	6
SCR	77	48	6	96	144	3
TAP	78	0	1
TAP	78	48	1
TAP	78	96	0
TAP	78	144	2
TAP	78	192	1
TAP	78	192	3
TAP	78	288	4
TAP	78	288	5
HLD	79	0	6	96
HLD	79	96	4	96
HLD	79	192	3	96
TAP	79	288	1
TAP	80	0	6
TAP	80	0	7
TAP	80	96	2
TAP	80	96	4
TAP	80	192	0
STR	80	240	0
SI_	80	240	0	96	48	4
STR	80	336	6
SI_	80	336	6	96	48	2
STR	81	48	1
SCL	81	48	1	96	144	4
TAP	82	0	6
TAP	82	48	6
TAP	82	96	7
TAP	82	144	5
TAP	82	192	4
TAP	82	192	6
STR	82	288	2
SCR	82	288	2	96	96	5
TAP	82	288	3
BRK	83	192	1
BRK	83	192	7
STR	83	288	0
SCL	83	288	0	96	384	1
TAP	85	192	0
TAP	85	192	7
TAP	85	240	0
TAP	85	240	7
TAP	85	288	1
TAP	85	288	6
HLD	86	0	5	192
TAP	86	96	4
HLD	86	192	2	192
TAP	86	288	3
HLD	87	0	6	192
TAP	87	96	4
TAP	87	192	1
TAP	87	288	0
HLD	87	336	0	240
TAP	88	96	6
STR	88	192	7
SUL	88	192	7	96	96	3
STR	89	0	0
SUR	89	0	0	96	96	4
STR	89	192	7
SCL	89	192	7	96	96	4
STR	90	0	0
SCR	90	0	0	96	96	3
STR	90	192	7
SI_	90	192	7	96	96	4
HLD	91	0	3	144
BRK	91	144	0
TAP	92	0	2
TAP	92	0	3
TAP	92	96	2
TAP	92	96	3
TAP	92	192	1
TAP	92	192	3
TAP	92	240	0
TAP	92	288	0
TAP	92	288	3
TAP	93	0	4
TAP	93	0	7
TAP	93	96	4
TAP	93	96	7
TAP	93	192	0
TAP	93	192	3
TAP	93	240	1
TAP	93	288	1
TAP	94	0	4
TAP	94	0	5
TAP	94	96	4
TAP	94	96	5
TAP	94	192	4
TAP	94	192	6
TAP	94	240	7
TAP	94	288	4
TAP	94	288	7
TAP	95	0	0
TAP	95	0	3
TAP	95	96	0
TAP	95	96	3
TAP	95	192	4
TAP	95	192	7
TAP	95	240	6
TAP	95	288	6
TAP	96	0	2
TAP	96	0	3
TAP	96	96	2
TAP	96	96	3
TAP	96	192	1
TAP	96	192	4
TAP	96	288	1
TAP	96	288	4
TAP	97	0	2
TAP	97	0	3
TAP	97	96	4
TAP	97	96	5
TAP	97	192	6
TAP	97	192	7
TAP	97	288	0
TAP	97	288	1
TAP	98	0	2
TAP	98	0	3
TAP	98	96	4
TAP	98	96	5
HLD	98	192	3	96
HLD	98	192	6	96
XST	98	336	7
SCL	98	336	7	96	720	0

T_REC_TAP	306
T_REC_BRK	8
T_REC_XTP	1
T_REC_HLD	47
T_REC_XHO	1
T_REC_STR	53
T_REC_BST	0
T_REC_XST	1
T_REC_TTP	10
T_REC_THO	0
T_REC_SLD	54
T_REC_ALL	481
T_NUM_TAP	371
T_NUM_BRK	8
T_NUM_HLD	48
T_NUM_SLD	54
T_NUM_ALL	481
T_JUDGE_TAP	379
T_JUDGE_HLD	168
T_JUDGE_SLD	54
T_JUDGE_ALL	601
TTM_EACHPAIRS	94
TTM_SCR_TAP	185500
TTM_SCR_BRK	20800
TTM_SCR_HLD	48000
TTM_SCR_SLD	81000
TTM_SCR_ALL	335300
TTM_SCR_S	324500
TTM_SCR_SS	334500
TTM_RAT_ACV	10023

