VERSION	0.00.00	1.03.00
FES_MODE	0
BPM_DEF	170.000	170.000	170.000	170.000
MET_DEF	4	4
RESOLUTION	384
CLK_DEF	384
COMPATIBLE_CODE	MA2

BPM	0	0	170.000
MET	0	0	4	4

XTP	4	0	3
XTP	4	96	3
TAP	4	192	4
TAP	4	288	4
TAP	5	0	3
TAP	5	0	4
TAP	5	96	3
TAP	5	96	4
XTP	5	192	2
XTP	5	192	5
TAP	6	0	1
TAP	6	96	1
TAP	6	192	0
TAP	6	192	1
TAP	7	0	2
TAP	7	96	2
TAP	7	192	2
TAP	7	192	3
TAP	8	0	4
TAP	8	96	4
TAP	8	192	5
TAP	8	288	5
TAP	9	0	6
TAP	9	96	6
TAP	9	96	7
XTP	9	192	0
XTP	9	192	5
TAP	10	0	6
TAP	10	96	6
TAP	10	192	6
TAP	10	192	7
TAP	11	0	5
TAP	11	96	5
TAP	11	192	4
TAP	11	192	5
TAP	12	0	3
TAP	12	96	3
TAP	12	192	2
TAP	12	288	2
TAP	13	0	1
TAP	13	96	0
TAP	13	96	7
XTP	13	192	1
XTP	13	192	6
HLD	14	0	5	192
TAP	14	192	4
TAP	14	288	3
HLD	15	0	2	192
TAP	15	192	3
TAP	15	288	4
HLD	16	0	5	192
TAP	16	192	4
TAP	16	288	3
TAP	17	0	2
TAP	17	96	2
XTP	17	192	2
XTP	17	192	3
HLD	18	0	2	192
TAP	18	192	3
TAP	18	288	4
HLD	19	0	5	192
TAP	19	192	4
TAP	19	288	3
HLD	20	0	2	192
TAP	20	192	3
TAP	20	288	4
TAP	21	0	5
TAP	21	96	5
XTP	21	192	4
XTP	21	192	6
TAP	22	0	5
TAP	22	96	5
TAP	22	192	4
TAP	22	192	5
TAP	23	0	2
TAP	23	96	2
TAP	23	192	2
TAP	23	192	3
TAP	24	0	1
TAP	24	96	0
TAP	24	192	7
TAP	24	288	6
TAP	25	0	5
TAP	25	96	5
XTP	25	192	4
XTP	25	192	6
TAP	26	0	2
TAP	26	96	2
TAP	26	192	2
TAP	26	192	3
TAP	27	0	5
TAP	27	96	5
TAP	27	192	4
TAP	27	192	5
TAP	28	0	6
TAP	28	96	7
TAP	28	192	0
TAP	28	288	1
TAP	29	0	0
TAP	29	0	7
TAP	29	96	0
TAP	29	96	7
XTP	29	192	1
XTP	29	192	6
TTP	30	0	6	B	0	L1
TTP	30	192	4	B	0	L1
TTP	31	0	2	B	0	L1
TTP	32	0	1	B	0	L1
TTP	32	192	3	B	0	L1
TTP	33	0	5	B	0	L1
TTP	34	0	6	B	0	L1
TTP	34	192	4	B	0	L1
TTP	35	0	3	B	0	L1
TTP	35	192	1	B	0	L1
TTP	36	0	0	C	0	L1
TTP	36	192	6	B	0	L1
TTP	37	0	0	C	0	L1
XST	38	0	7
SCL	38	0	7	96	192	4
STR	39	0	3
SCL	39	0	3	96	192	0
STR	40	0	7
SI_	40	0	7	96	192	4
XTP	41	0	3
XTP	41	96	3
XTP	41	192	3
STR	42	0	3
SCL	42	0	3	96	192	0
STR	42	0	4
SCR	42	0	4	96	192	7
XTP	43	0	0
XTP	43	0	7
XTP	43	96	0
XTP	43	96	7
BRK	43	192	1
BRK	43	192	6
TAP	44	0	1
TAP	44	96	1
TAP	44	192	0
TAP	44	192	1
TAP	44	288	0
TAP	44	288	1
TAP	45	0	6
TAP	45	96	6
TAP	45	96	7
TAP	45	192	0
TAP	45	192	5
HLD	46	0	5	96
TAP	46	96	4
HLD	46	192	2	96
TAP	46	288	3
TAP	47	0	5
TAP	47	96	4
TAP	47	96	5
XTP	47	192	3
XTP	47	192	6
TAP	48	0	6
TAP	48	96	6
TAP	48	192	6
TAP	48	192	7
TAP	48	288	6
TAP	48	288	7
TAP	49	0	1
TAP	49	96	0
TAP	49	96	1
TAP	49	192	2
TAP	49	192	7
TAP	50	0	2
TAP	50	96	2
TAP	50	192	3
TAP	50	288	3
TAP	51	0	3
TAP	51	0	4
TAP	51	96	2
TAP	51	96	5
BRK	51	192	1
BRK	51	192	6
TAP	52	0	6
TAP	52	96	6
TAP	52	192	6
TAP	52	192	7
TAP	52	288	6
TAP	52	288	7
TAP	53	0	5
TAP	53	96	4
TAP	53	96	5
TAP	53	192	3
TAP	53	192	6
HLD	54	0	2	96
TAP	54	96	3
HLD	54	192	5	96
TAP	54	288	4
TAP	55	0	2
TAP	55	96	2
TAP	55	96	3
XTP	55	192	1
XTP	55	192	4
TAP	56	0	1
TAP	56	96	1
TAP	56	192	0
TAP	56	192	1
TAP	56	288	0
TAP	56	288	1
TAP	57	0	2
TAP	57	96	2
TAP	57	96	3
TAP	57	192	1
TAP	57	192	4
TAP	58	0	5
TAP	58	96	5
TAP	58	192	6
TAP	58	288	6
TAP	59	0	0
TAP	59	0	7
TAP	59	96	0
TAP	59	96	7
BRK	59	192	1
BRK	59	192	6
HLD	60	0	2	768
HLD	62	0	3	768
HLD	64	0	4	768
TAP	66	0	5
TAP	66	96	5
TAP	66	192	6
TAP	66	288	6
XTP	67	0	0
XTP	67	0	7
XTP	67	96	0
XTP	67	96	7
BRK	67	192	1
BRK	67	192	6
TAP	68	0	1
TAP	68	96	0
TAP	68	96	1
TAP	68	192	6
TAP	68	288	6
TAP	68	288	7
TAP	69	0	1
TAP	69	96	0
TAP	69	96	1
XTP	69	192	2
XTP	69	192	7
HLD	70	0	2	96
TAP	70	96	3
HLD	70	192	5	96
TAP	70	288	4
TAP	71	0	3
TAP	71	96	3
TAP	71	96	4
XTP	71	192	2
XTP	71	192	5
TAP	72	0	6
TAP	72	96	6
TAP	72	96	7
TAP	72	192	1
TAP	72	288	0
TAP	72	288	1
TAP	73	0	6
TAP	73	96	6
TAP	73	96	7
XTP	73	192	0
XTP	73	192	5
TAP	74	0	5
TAP	74	96	4
TAP	74	192	3
TAP	74	288	2
TAP	75	0	3
TAP	75	0	4
TAP	75	96	2
TAP	75	96	5
BRK	75	192	1
BRK	75	192	6
TAP	76	0	6
TAP	76	96	6
TAP	76	96	7
TAP	76	192	5
TAP	76	288	4
TAP	76	288	5
TAP	77	0	6
TAP	77	96	6
TAP	77	96	7
XTP	77	192	0
XTP	77	192	5
HLD	78	0	5	96
TAP	78	96	4
HLD	78	192	2	96
TAP	78	288	3
TAP	79	0	4
TAP	79	96	3
TAP	79	96	4
XTP	79	192	2
XTP	79	192	5
TAP	80	0	1
TAP	80	96	0
TAP	80	96	1
TAP	80	192	2
TAP	80	288	2
TAP	80	288	3
TAP	81	0	1
TAP	81	96	0
TAP	81	96	1
XTP	81	192	2
XTP	81	192	7
TAP	82	0	0
TAP	82	96	1
TAP	82	192	0
TAP	82	288	7
TAP	83	0	0
TAP	83	0	7
TAP	83	96	1
TAP	83	96	6
BRK	83	192	2
BRK	83	192	5
STR	84	0	6
SCL	84	0	6	96	192	3
STR	85	0	2
SCL	85	0	2	96	192	7
XTP	86	0	6
XTP	86	96	6
TAP	86	192	0
TAP	86	192	7
TAP	86	288	0
TAP	86	288	7
XTP	87	0	1
XTP	87	0	6
XHO	87	336	6	144
XHO	87	336	7	144
TAP	88	192	0
TAP	88	288	1
TAP	89	0	2
TAP	89	96	3
XTP	89	192	2
XTP	89	192	4
TAP	90	0	5
TAP	90	96	4
TAP	90	192	3
TAP	90	288	2
TAP	91	0	1
XTP	91	96	0
XTP	91	96	7
XTP	91	192	1
XTP	91	192	6
TAP	92	0	6
TAP	92	96	6
TAP	92	96	7
TAP	92	192	6
TAP	92	192	7
TAP	92	288	6
TAP	92	288	7
TAP	93	0	1
TAP	93	96	0
TAP	93	96	1
TAP	93	192	0
TAP	93	192	1
TAP	93	288	0
TAP	93	288	1
TAP	94	0	2
TAP	94	96	2
TAP	94	96	3
TAP	94	192	2
TAP	94	192	3
TAP	94	288	2
TAP	94	288	3
TAP	95	0	5
TAP	95	96	4
TAP	95	96	5
XTP	95	192	3
XTP	95	192	6
TAP	96	0	6
XTP	96	96	6
XTP	96	96	7
TAP	96	192	5
XTP	96	288	4
XTP	96	288	5
TAP	97	0	2
XTP	97	96	2
XTP	97	96	3
TAP	97	192	1
TAP	97	288	0
TAP	97	288	1
XTP	98	0	2
XTP	98	0	7
XTP	98	192	0
XTP	98	192	7
XTP	98	240	0
XTP	98	240	7
BRK	98	336	1
BST	98	336	6
SCR	98	336	6	96	1344	5

T_REC_TAP	261
T_REC_BRK	13
T_REC_XTP	67
T_REC_HLD	17
T_REC_XHO	2
T_REC_STR	6
T_REC_BST	1
T_REC_XST	1
T_REC_TTP	13
T_REC_THO	0
T_REC_SLD	8
T_REC_ALL	389
T_NUM_TAP	348
T_NUM_BRK	14
T_NUM_HLD	19
T_NUM_SLD	8
T_NUM_ALL	389
T_JUDGE_TAP	362
T_JUDGE_HLD	94
T_JUDGE_SLD	8
T_JUDGE_ALL	464
TTM_EACHPAIRS	106
TTM_SCR_TAP	174000
TTM_SCR_BRK	36400
TTM_SCR_HLD	19000
TTM_SCR_SLD	12000
TTM_SCR_ALL	241400
TTM_SCR_S	232800
TTM_SCR_SS	240000
TTM_RAT_ACV	10058

