VERSION	0.00.00	1.03.00
FES_MODE	0
BPM_DEF	170.000	170.000	170.000	170.000
MET_DEF	4	4
RESOLUTION	384
CLK_DEF	384
COMPATIBLE_CODE	MA2

BPM	0	0	170.000
MET	0	0	4	4

XTP	6	0	0
TAP	7	0	0
TAP	8	0	1
TAP	9	0	1
TAP	10	0	2
TAP	11	0	2
TAP	12	0	3
XTP	13	0	3
XTP	13	0	4
TAP	14	0	4
TAP	15	0	4
TAP	16	0	5
TAP	16	192	5
TAP	17	0	5
TAP	18	0	6
TAP	19	0	6
TAP	20	0	7
TAP	20	192	7
TAP	21	0	7
TAP	22	0	0
TAP	23	0	0
TAP	24	0	1
TAP	24	192	1
TAP	25	0	1
TAP	26	0	2
TAP	27	0	2
TAP	28	0	3
TAP	28	192	3
BRK	29	0	3
BRK	29	0	4
TTP	30	0	4	B	0	L1
TTP	31	0	3	B	0	L1
TTP	32	0	2	B	0	L1
TTP	33	0	1	B	0	L1
TTP	34	0	0	B	0	L1
TTP	35	0	7	B	0	L1
TTP	36	0	6	B	0	L1
TTP	37	0	5	B	0	L1
TTP	38	0	3	B	0	L1
TTP	38	0	4	B	0	L1
TTP	39	0	2	B	0	L1
TTP	39	0	5	B	0	L1
TTP	40	0	1	B	0	L1
TTP	40	0	6	B	0	L1
TTP	41	0	0	B	0	L1
TTP	41	0	7	B	0	L1
THO	42	0	0	384	C	1	L1
XTP	44	0	7
TAP	44	192	7
TAP	45	0	7
TAP	45	96	7
TAP	45	192	7
TAP	46	0	6
TAP	46	192	6
TAP	47	0	6
TAP	47	0	7
TAP	47	192	6
TAP	47	192	7
TAP	48	0	5
TAP	48	192	5
TAP	49	0	5
TAP	49	96	5
TAP	49	192	5
TAP	50	0	4
TAP	50	192	4
TAP	51	0	4
TAP	51	96	3
BRK	51	192	4
TAP	52	0	3
TAP	52	192	3
TAP	53	0	3
TAP	53	96	3
TAP	53	192	3
TAP	54	0	2
TAP	54	192	2
TAP	55	0	2
TAP	55	0	3
TAP	55	192	2
TAP	55	192	3
TAP	56	0	1
TAP	56	192	1
TAP	57	0	1
TAP	57	96	1
TAP	57	192	1
TAP	58	0	0
TAP	58	192	0
TAP	59	0	0
TAP	59	96	7
XTP	59	192	0
STR	60	0	0
SI_	60	0	0	96	288	3
TAP	62	0	7
TAP	62	192	7
TAP	63	0	0
TAP	63	96	0
TAP	63	192	0
STR	64	0	7
SI_	64	0	7	96	288	4
TAP	66	0	0
TAP	66	192	0
TAP	67	0	7
TAP	67	96	7
BRK	67	192	7
TAP	68	0	6
TAP	68	96	6
TAP	68	192	6
TAP	69	0	5
TAP	69	96	5
TAP	69	192	5
TAP	70	0	4
TAP	70	96	4
TAP	70	192	3
TAP	70	288	3
TAP	71	0	4
TAP	71	96	4
TAP	71	192	3
TAP	71	192	4
TAP	72	0	2
TAP	72	96	2
TAP	72	192	2
TAP	73	0	1
TAP	73	96	1
TAP	73	192	1
TAP	74	0	0
TAP	74	96	0
TAP	74	192	7
TAP	74	288	7
TAP	75	0	0
TAP	75	96	0
BRK	75	192	0
BRK	75	192	7
TAP	76	0	1
TAP	76	96	1
TAP	76	192	1
TAP	77	0	2
TAP	77	96	2
TAP	77	192	2
TAP	78	0	3
TAP	78	96	3
TAP	78	192	4
TAP	78	288	4
TAP	79	0	3
TAP	79	96	3
TAP	79	192	3
TAP	79	192	4
TAP	80	0	5
TAP	80	96	5
TAP	80	192	5
TAP	81	0	6
TAP	81	96	6
TAP	81	192	6
TAP	82	0	7
TAP	82	96	7
TAP	82	192	0
TAP	82	288	0
TAP	83	0	7
TAP	83	96	7
XTP	83	192	0
XTP	83	192	7
STR	84	0	0
SI_	84	0	0	96	288	3
TAP	86	0	4
TAP	86	192	4
TAP	87	0	3
TAP	87	192	3
STR	88	0	4
SI_	88	0	4	96	288	7
HLD	90	0	0	384
HLD	90	0	7	384
TAP	92	0	7
TAP	92	192	7
TAP	93	0	6
TAP	93	192	6
TAP	94	0	5
TAP	94	192	5
TAP	95	0	3
TAP	95	0	4
TAP	95	96	3
TAP	95	96	4
TAP	95	192	3
TAP	95	192	4
TAP	96	0	2
TAP	96	192	2
TAP	97	0	1
TAP	97	192	1
STR	98	0	0
SI_	98	0	0	96	288	4

T_REC_TAP	145
T_REC_BRK	6
T_REC_XTP	7
T_REC_HLD	2
T_REC_XHO	0
T_REC_STR	5
T_REC_BST	0
T_REC_XST	0
T_REC_TTP	16
T_REC_THO	1
T_REC_SLD	5
T_REC_ALL	187
T_NUM_TAP	173
T_NUM_BRK	6
T_NUM_HLD	3
T_NUM_SLD	5
T_NUM_ALL	187
T_JUDGE_TAP	179
T_JUDGE_HLD	24
T_JUDGE_SLD	5
T_JUDGE_ALL	208
TTM_EACHPAIRS	14
TTM_SCR_TAP	86500
TTM_SCR_BRK	15600
TTM_SCR_HLD	3000
TTM_SCR_SLD	7500
TTM_SCR_ALL	112600
TTM_SCR_S	108650
TTM_SCR_SS	112000
TTM_RAT_ACV	10053

