VERSION	0.00.00	1.03.00
FES_MODE	0
BPM_DEF	150.000	150.000	163.000	135.000
MET_DEF	4	4
RESOLUTION	384
CLK_DEF	384
COMPATIBLE_CODE	MA2

BPM	0	0	150.000
BPM	2	288	154.000
BPM	3	0	155.000
BPM	3	96	146.000
BPM	4	0	151.000
BPM	4	288	163.000
BPM	5	0	146.000
BPM	5	288	150.000
BPM	6	0	155.000
BPM	6	288	135.000
BPM	7	0	150.000
BPM	8	0	147.000
BPM	8	288	157.000
BPM	9	0	150.000
BPM	11	192	155.000
BPM	12	0	150.000
BPM	13	0	149.000
BPM	17	0	151.000
BPM	19	288	155.000
BPM	20	0	150.000
BPM	22	192	154.000
BPM	23	0	145.000
BPM	23	288	155.000
BPM	24	0	150.000
BPM	26	0	151.000
BPM	28	0	148.000
BPM	29	288	154.000
BPM	30	0	150.000
BPM	37	0	161.000
BPM	37	96	148.000
BPM	37	192	150.000
BPM	42	0	149.000
BPM	45	0	150.000
BPM	45	288	159.000
BPM	46	0	150.000
BPM	50	0	151.000
BPM	52	0	159.000
BPM	52	192	147.000
BPM	53	0	150.000
BPM	54	0	149.000
BPM	57	96	146.000
BPM	57	192	154.000
BPM	58	0	150.000
BPM	58	192	145.000
BPM	58	288	156.000
BPM	59	96	150.000
BPM	60	0	147.000
BPM	61	0	153.000
BPM	62	0	149.000
BPM	64	0	152.000
BPM	65	192	147.000
BPM	66	0	150.000
BPM	72	0	151.000
BPM	74	0	150.000
BPM	78	0	148.000
BPM	79	0	150.000
BPM	85	0	149.000
BPM	86	0	150.000
MET	0	0	4	4

TAP	3	0	1
TAP	3	0	4
TAP	3	48	5
TAP	3	72	5
TAP	3	96	4
HLD	3	144	3	432
HLD	3	144	6	432
STR	4	288	4
SUL	4	288	4	96	192	7
HLD	5	0	2	288
STR	5	288	7
SI_	5	288	7	96	48	3
XTP	6	0	0
XTP	6	0	7
TAP	6	144	2
TAP	6	192	1
TAP	6	192	4
TAP	6	264	2
TAP	6	264	5
TAP	6	336	3
TAP	6	336	6
TAP	7	0	3
TAP	7	0	6
TAP	7	48	2
TAP	7	72	2
TAP	7	96	3
HLD	7	144	1	432
HLD	7	144	4	432
STR	8	288	3
SI_	8	288	3	96	96	0
HLD	9	0	5	96
TAP	9	192	3
TAP	9	192	7
TAP	9	264	2
TAP	9	264	5
TAP	9	336	0
TAP	9	336	4
TTP	10	0	1	E	0	M1
TTP	10	16	1	B	0	M1
TTP	10	32	2	B	0	M1
TTP	10	48	3	E	0	M1
TTP	10	96	7	E	0	M1
TTP	10	112	6	B	0	M1
TTP	10	128	5	B	0	M1
TTP	10	144	5	E	0	M1
TAP	10	192	0
TAP	10	192	7
TAP	10	256	1
TAP	10	256	6
TAP	10	320	2
TAP	10	320	5
TAP	11	0	2
TAP	11	16	3
TAP	11	32	2
TAP	11	48	3
TAP	11	96	5
TAP	11	112	4
TAP	11	128	5
TAP	11	144	4
TAP	11	192	3
TAP	11	192	6
TAP	11	264	1
TAP	11	264	4
TAP	11	336	3
TAP	11	336	5
TAP	12	0	3
TAP	12	0	5
TAP	12	48	6
STR	12	96	6
SCL	12	96	6	96	48	3
STR	12	96	7
SUL	12	96	7	96	48	2
TAP	12	144	0
TAP	12	288	1
TAP	12	312	0
TAP	12	336	1
HLD	13	0	7	72
HLD	13	72	5	72
TAP	13	144	4
TAP	13	192	3
TAP	13	240	4
TAP	13	288	5
TAP	13	336	5
TAP	14	0	2
TAP	14	0	4
TAP	14	48	1
STR	14	96	0
SUR	14	96	0	96	48	5
STR	14	96	1
SCR	14	96	1	96	48	4
TAP	14	144	7
TAP	14	288	6
TAP	14	312	7
TAP	14	336	6
HLD	15	0	0	72
HLD	15	72	2	72
TAP	15	144	3
TAP	15	192	3
TAP	15	192	4
TAP	15	240	2
TAP	15	240	5
TAP	15	288	1
TAP	15	288	6
TAP	16	0	2
TAP	16	0	4
TAP	16	48	1
STR	16	96	0
SUR	16	96	0	96	48	5
STR	16	96	1
SCR	16	96	1	96	48	4
TAP	16	144	7
TAP	16	288	6
TAP	16	312	7
TAP	16	336	6
HLD	17	0	0	72
HLD	17	72	2	72
TAP	17	144	3
TAP	17	192	4
TAP	17	240	3
TAP	17	288	2
TAP	17	336	2
TAP	18	0	3
TAP	18	0	5
TAP	18	48	6
STR	18	96	6
SCL	18	96	6	96	48	3
STR	18	96	7
SUL	18	96	7	96	48	2
TAP	18	144	0
TAP	18	288	1
TAP	18	312	0
TAP	18	336	1
HLD	19	0	7	72
HLD	19	72	5	72
TAP	19	144	4
TAP	19	192	3
TAP	19	192	4
BRK	19	288	1
BRK	19	288	6
STR	20	0	2
SCR	20	0	2	96	48	5
TAP	20	48	2
HLD	20	96	6	96
TAP	20	192	4
HLD	20	240	4	96
TAP	20	336	5
STR	21	0	5
SI_	21	0	5	96	48	1
STR	21	96	3
SI_	21	96	3	96	48	0
TAP	21	192	7
TAP	21	240	7
TAP	21	336	2
TAP	21	336	5
TAP	22	0	3
TAP	22	48	4
STR	22	96	3
SI_	22	96	3	96	48	0
STR	22	96	4
SI_	22	96	4	96	48	7
XTP	22	336	0
XTP	22	336	7
XTP	23	0	0
XTP	23	0	7
TAP	23	96	2
TAP	23	96	4
TAP	23	144	3
TAP	23	144	5
TAP	23	240	0
TAP	23	240	7
TAP	23	288	2
TAP	23	288	5
STR	24	0	5
SCL	24	0	5	96	48	2
TAP	24	48	5
HLD	24	96	1	96
TAP	24	192	3
HLD	24	240	3	96
TAP	24	336	2
STR	25	0	2
SI_	25	0	2	96	48	6
STR	25	96	4
SI_	25	96	4	96	48	7
TAP	25	192	0
TAP	25	240	0
TAP	25	336	2
TAP	26	0	4
TAP	26	48	1
TAP	26	48	5
STR	26	96	2
SI_	26	96	2	96	48	5
STR	26	96	6
SI_	26	96	6	96	48	1
XTP	26	336	0
XTP	26	336	7
XST	27	0	0
SI_	27	0	0	96	48	4
XST	27	0	7
SI_	27	0	7	96	48	3
TAP	27	96	0
TAP	27	96	7
TAP	27	192	1
TAP	27	192	6
STR	27	288	2
SI_	27	288	2	96	48	7
TAP	27	288	4
XTP	28	0	2
STR	28	0	5
SI_	28	0	5	96	48	0
STR	28	96	3
SI_	28	96	3	96	48	7
XTP	28	96	5
XTP	28	192	3
TAP	28	192	4
TAP	28	288	1
STR	28	288	5
SI_	28	288	5	96	48	0
STR	29	0	2
SI_	29	0	2	96	48	7
XTP	29	0	5
XTP	29	96	2
STR	29	96	4
SI_	29	96	4	96	48	0
TAP	29	192	3
XTP	29	192	4
TAP	29	288	2
TAP	29	288	6
STR	30	0	3
SCL	30	0	3	96	48	0
TAP	30	96	4
STR	30	192	4
SCR	30	192	4	96	48	7
TAP	30	288	3
STR	31	0	3
SCL	31	0	3	96	48	0
TAP	31	96	4
TAP	31	192	6
TAP	31	240	6
TAP	31	288	3
STR	31	288	5
SI_	31	288	5	96	48	0
STR	32	0	2
SI_	32	0	2	96	48	7
XTP	32	0	5
XTP	32	96	2
STR	32	96	4
SI_	32	96	4	96	48	0
TAP	32	192	3
XTP	32	192	4
STR	32	288	2
SI_	32	288	2	96	48	7
TAP	32	288	6
XTP	33	0	2
STR	33	0	5
SI_	33	0	5	96	48	0
STR	33	96	3
SI_	33	96	3	96	48	7
XTP	33	96	5
XTP	33	192	3
TAP	33	192	4
TAP	33	288	1
TAP	33	288	5
TAP	34	0	0
TAP	34	0	7
HLD	34	48	0	336
TAP	34	48	7
TAP	34	144	3
TAP	34	192	3
TAP	34	288	5
TAP	35	0	7
HLD	35	48	7	336
TAP	35	144	4
TAP	35	192	4
TAP	35	288	2
TAP	36	0	0
TAP	36	48	0
TAP	36	96	4
TAP	36	144	4
TAP	36	192	2
TAP	36	192	5
TAP	36	240	2
TAP	36	240	5
TAP	36	288	1
TAP	36	288	6
TAP	36	336	1
TAP	36	336	6
XTP	37	0	0
XTP	37	24	7
XTP	37	72	0
XTP	37	72	7
XTP	37	120	0
XTP	37	120	7
XTP	37	168	1
XTP	37	168	6
XST	37	192	1
SI_	37	192	1	96	48	4
XST	37	192	6
SI_	37	192	6	96	48	3
BRK	37	288	1
BRK	37	288	6
STR	38	0	2
SI_	38	0	2	96	48	5
TAP	38	48	4
TAP	38	96	2
TAP	38	144	6
HLD	38	168	6	72
TAP	38	240	7
TAP	38	288	2
TAP	38	288	4
STR	39	0	5
SI_	39	0	5	96	48	2
TAP	39	48	3
TAP	39	96	5
TAP	39	144	1
HLD	39	168	1	72
TAP	39	240	0
TAP	39	288	3
TAP	39	288	5
HLD	40	0	7	72
HLD	40	72	5	72
TAP	40	144	4
STR	40	192	2
SI_	40	192	2	96	48	5
STR	40	192	4
SI_	40	192	4	96	48	7
TAP	40	288	2
TAP	40	288	4
TAP	41	0	7
TAP	41	48	7
TAP	41	96	0
TAP	41	144	1
TAP	41	240	3
TAP	41	240	5
TAP	41	288	2
TAP	41	288	6
STR	42	0	7
SCL	42	0	7	96	192	2
TTP	42	96	0	B	0	M1
TTP	42	96	1	B	0	M1
TTP	42	192	0	C	0	M1
TTP	42	288	4	E	0	M1
STR	43	0	0
SCR	43	0	0	96	192	5
TTP	43	96	6	B	0	M1
TTP	43	96	7	B	0	M1
TTP	43	192	0	C	0	M1
TTP	43	288	4	E	0	M1
STR	44	0	7
SCL	44	0	7	96	192	2
TTP	44	96	0	B	0	M1
TTP	44	96	1	B	0	M1
TTP	44	192	0	C	0	M1
TTP	44	288	4	E	0	M1
XTP	45	0	1
XTP	45	0	4
XTP	45	72	2
XTP	45	72	5
XTP	45	144	3
XTP	45	144	6
XST	45	192	3
SCL	45	192	3	96	48	0
XTP	45	192	6
TTP	45	288	0	C	1	M1
TAP	46	0	0
TAP	46	0	7
TAP	46	48	6
STR	46	96	4
SI_	46	96	4	96	48	7
HLD	46	96	5	192
STR	46	192	4
SI_	46	192	4	96	48	1
TAP	46	288	4
TAP	47	0	0
TAP	47	0	7
TAP	47	48	1
HLD	47	96	2	192
STR	47	96	3
SI_	47	96	3	96	48	0
STR	47	192	3
SI_	47	192	3	96	48	6
TAP	47	288	3
HLD	48	0	7	72
HLD	48	72	5	72
TAP	48	144	4
TAP	48	192	3
STR	48	240	2
SCL	48	240	2	96	96	5
TAP	48	288	2
TTP	48	336	0	C	1	M1
TAP	49	144	0
TAP	49	144	7
TAP	49	192	1
TAP	49	192	6
TAP	49	240	2
TAP	49	240	5
TAP	49	288	3
TAP	49	288	4
TAP	50	0	2
TAP	50	0	7
STR	50	48	0
SI_	50	48	0	96	48	5
STR	50	48	1
SI_	50	48	1	96	48	4
XTP	50	144	0
XTP	50	144	1
XTP	50	240	2
XTP	50	240	6
XTP	50	288	2
XTP	50	288	6
STR	51	0	0
SI_	51	0	0	96	48	4
STR	51	0	7
SI_	51	0	7	96	48	3
TAP	51	48	1
TAP	51	48	6
STR	51	96	0
SCR	51	96	0	96	48	3
STR	51	96	7
SCL	51	96	7	96	48	4
TAP	51	192	0
TAP	51	192	7
TTP	51	288	0	C	1	M1
TTP	51	288	2	B	0	M1
TTP	51	288	5	B	0	M1
HLD	52	0	0	48
HLD	52	0	7	48
HLD	52	96	5	48
HLD	52	96	6	48
HLD	52	192	3	48
HLD	52	192	4	48
HLD	52	288	1	48
HLD	52	288	2	48
XTP	53	0	0
XTP	53	16	1
XTP	53	32	2
XTP	53	48	3
XTP	53	96	7
XTP	53	112	6
XTP	53	128	5
XTP	53	144	4
XTP	53	192	0
XTP	53	208	1
XTP	53	224	2
XTP	53	240	3
BRK	53	288	3
BRK	53	288	7
HLD	54	0	2	96
TAP	54	96	3
TAP	54	144	2
TAP	54	168	4
TAP	54	192	2
TAP	54	216	4
TAP	54	240	3
TAP	54	264	5
TAP	54	288	3
TAP	54	312	5
TAP	54	336	2
TAP	55	0	2
TAP	55	32	3
TAP	55	64	1
TAP	55	96	5
TAP	55	128	4
TAP	55	160	6
TAP	55	192	0
TAP	55	216	7
TAP	55	240	0
TAP	55	264	7
TAP	55	288	0
TAP	56	0	2
HLD	56	48	2	48
TAP	56	96	0
HLD	56	144	0	48
TAP	56	192	7
HLD	56	240	7	48
TAP	56	288	5
HLD	56	336	5	48
TAP	57	0	3
TAP	57	24	4
TAP	57	48	3
TAP	57	72	4
TAP	57	96	2
TAP	57	120	5
TAP	57	144	2
TAP	57	168	5
TAP	57	192	2
TAP	57	216	3
TAP	57	240	1
TAP	57	264	4
TAP	57	288	0
TAP	57	312	5
TAP	57	336	7
TAP	57	360	6
BRK	58	0	0
TAP	58	144	4
TAP	58	144	6
TAP	58	192	3
TAP	58	240	2
TAP	58	240	4
TAP	58	288	1
TAP	58	336	0
TAP	58	336	7
STR	59	0	6
SI_	59	0	6	96	48	2
TAP	59	48	6
STR	59	96	1
SI_	59	96	1	96	48	5
TAP	59	144	1
STR	59	192	4
SI_	59	192	4	96	48	7
TAP	59	240	4
BRK	59	288	3
TAP	60	0	3
TAP	60	24	4
TAP	60	48	3
TAP	60	72	4
TAP	60	96	3
TAP	60	120	5
TAP	60	144	3
TAP	60	168	6
TAP	60	192	3
TAP	60	216	7
TAP	60	240	3
TAP	60	264	0
TAP	60	288	3
TAP	60	312	1
TAP	60	336	3
TAP	60	360	2
TAP	61	0	3
TAP	61	24	4
TAP	61	48	3
TAP	61	72	5
TAP	61	96	3
TAP	61	120	6
TAP	61	144	3
TAP	61	168	7
TAP	61	192	3
BRK	61	240	2
BRK	61	240	6
BRK	61	288	0
BRK	61	288	4
TAP	62	0	5
TAP	62	24	4
TAP	62	48	6
STR	62	96	6
SCL	62	96	6	96	48	3
STR	62	96	7
SUL	62	96	7	96	48	2
TAP	62	144	0
TAP	62	288	1
TAP	62	312	0
TAP	62	336	1
HLD	63	0	7	72
HLD	63	72	5	72
TAP	63	144	4
TAP	63	192	3
TAP	63	240	4
TAP	63	288	5
TAP	63	336	3
TAP	63	336	5
TAP	64	0	2
TAP	64	24	3
TAP	64	48	1
STR	64	96	0
SUR	64	96	0	96	48	5
STR	64	96	1
SCR	64	96	1	96	48	4
TAP	64	144	7
TAP	64	288	6
TAP	64	312	7
TAP	64	336	6
STR	65	0	3
SLL	65	0	3	96	96	4
STR	65	0	5
SLR	65	0	5	96	96	4
STR	65	288	0
SSL	65	288	0	96	192	4
STR	66	288	0
SSL	66	288	0	96	192	4
STR	67	288	5
SUL	67	288	5	96	288	4
TAP	69	0	5
TAP	69	32	4
TAP	69	64	6
TAP	69	96	2
TAP	69	128	3
TAP	69	160	1
TAP	69	192	5
TAP	69	224	4
TAP	69	256	6
TAP	69	288	2
TAP	69	320	3
TAP	69	352	1
STR	70	0	7
SCL	70	0	7	96	192	4
TAP	70	96	2
TAP	70	192	2
TAP	70	288	1
STR	71	0	0
SCR	71	0	0	96	192	3
TAP	71	96	5
TAP	71	192	5
TAP	71	288	6
STR	72	0	7
SCL	72	0	7	96	192	4
TAP	72	96	2
TAP	72	192	2
TAP	72	288	1
TAP	73	0	0
TAP	73	0	7
TAP	73	72	2
TAP	73	72	5
TAP	73	144	3
TAP	73	144	4
TAP	73	192	3
STR	73	192	4
SCR	73	192	4	96	48	7
TTP	73	288	0	C	1	M1
TAP	74	0	0
TAP	74	0	7
TAP	74	48	1
HLD	74	96	2	192
STR	74	96	3
SI_	74	96	3	96	48	0
STR	74	192	3
SI_	74	192	3	96	48	6
TAP	74	288	3
TAP	75	0	0
TAP	75	0	7
TAP	75	48	6
STR	75	96	4
SI_	75	96	4	96	48	7
HLD	75	96	5	192
STR	75	192	4
SI_	75	192	4	96	48	1
TAP	75	288	4
HLD	76	0	0	72
HLD	76	72	2	72
TAP	76	144	3
TAP	76	192	4
STR	76	240	5
SCR	76	240	5	96	96	2
TAP	76	288	5
TTP	76	336	0	C	1	M1
TAP	77	144	0
TAP	77	144	7
TAP	77	192	1
TAP	77	192	6
TAP	77	240	2
TAP	77	240	5
TAP	77	288	3
TAP	77	288	4
TAP	78	0	0
TAP	78	0	5
STR	78	48	6
SI_	78	48	6	96	48	3
STR	78	48	7
SI_	78	48	7	96	48	2
XTP	78	144	6
XTP	78	144	7
XTP	78	240	1
XTP	78	240	5
XTP	78	288	1
XTP	78	288	5
STR	79	0	0
SI_	79	0	0	96	48	4
STR	79	0	7
SI_	79	0	7	96	48	3
TAP	79	48	1
TAP	79	48	6
STR	79	96	0
SCR	79	96	0	96	48	3
STR	79	96	7
SCL	79	96	7	96	48	4
TAP	79	192	0
TAP	79	192	7
TAP	80	0	0
TAP	80	24	7
TAP	80	48	2
TAP	80	72	5
TAP	80	96	1
TAP	80	120	6
TAP	80	144	3
TAP	80	168	4
TAP	80	192	0
TAP	80	216	7
TAP	80	240	2
TAP	80	264	5
TAP	80	288	1
TAP	80	312	6
TAP	80	336	3
TAP	80	360	4
TAP	81	0	0
TAP	81	16	1
TAP	81	32	2
TAP	81	48	3
TAP	81	96	7
TAP	81	112	6
TAP	81	128	5
TAP	81	144	4
XTP	81	192	0
XTP	81	192	7
XTP	81	208	1
XTP	81	208	6
XTP	81	224	2
XTP	81	224	5
XTP	81	240	3
XTP	81	240	4
BRK	81	288	0
BRK	81	288	7
TAP	82	0	3
TAP	82	0	6
TAP	82	48	2
TAP	82	72	2
TAP	82	96	3
HLD	82	144	1	432
HLD	82	144	4	432
STR	83	288	3
SUR	83	288	3	96	192	0
HLD	84	0	5	288
STR	84	288	0
SI_	84	288	0	96	48	4
XTP	85	0	0
XTP	85	0	7
TAP	85	144	5
TAP	85	168	5
TAP	85	192	4
TAP	85	264	2
TAP	85	264	5
TAP	85	336	1
TAP	85	336	4
TAP	86	0	1
TAP	86	0	4
TAP	86	48	5
TAP	86	72	5
TAP	86	96	4
HLD	86	144	3	432
HLD	86	144	6	432
STR	87	288	4
SI_	87	288	4	96	96	7
HLD	88	0	2	96
TAP	88	192	1
TAP	88	192	4
TAP	88	264	2
TAP	88	264	5
TAP	88	336	3
TAP	88	336	6
TAP	89	0	5
TAP	89	16	4
TAP	89	32	5
TAP	89	48	4
TAP	89	96	2
TAP	89	112	3
TAP	89	128	2
TAP	89	144	3
TAP	89	192	4
TAP	89	192	5
TAP	89	264	3
TAP	89	264	4
TAP	89	336	2
TAP	89	336	3
STR	90	0	1
SI_	90	0	1	96	48	6
STR	90	0	5
SI_	90	0	5	96	48	2
TAP	90	48	2
TAP	90	48	6
XTP	90	96	1
XTP	90	96	5
TAP	90	192	0
TAP	90	192	7
TAP	90	264	3
TAP	90	264	4
XTP	90	336	1
XTP	90	336	6

T_REC_TAP	425
T_REC_BRK	14
T_REC_XTP	73
T_REC_HLD	53
T_REC_XHO	0
T_REC_STR	86
T_REC_BST	0
T_REC_XST	5
T_REC_TTP	27
T_REC_THO	0
T_REC_SLD	91
T_REC_ALL	774
T_NUM_TAP	616
T_NUM_BRK	14
T_NUM_HLD	53
T_NUM_SLD	91
T_NUM_ALL	774
T_JUDGE_TAP	630
T_JUDGE_HLD	176
T_JUDGE_SLD	91
T_JUDGE_ALL	897
TTM_EACHPAIRS	159
TTM_SCR_TAP	308000
TTM_SCR_BRK	36400
TTM_SCR_HLD	53000
TTM_SCR_SLD	136500
TTM_SCR_ALL	533900
TTM_SCR_S	516550
TTM_SCR_SS	532500
TTM_RAT_ACV	10026

