VERSION	0.00.00	1.03.00
FES_MODE	0
BPM_DEF	150.000	150.000	163.000	135.000
MET_DEF	4	4
RESOLUTION	384
CLK_DEF	384
COMPATIBLE_CODE	MA2

BPM	0	0	150.000
BPM	2	288	154.000
BPM	3	0	155.000
BPM	3	96	146.000
BPM	4	0	151.000
BPM	4	288	163.000
BPM	5	0	146.000
BPM	5	288	150.000
BPM	6	0	155.000
BPM	6	288	135.000
BPM	7	0	150.000
BPM	8	0	147.000
BPM	8	288	157.000
BPM	9	0	150.000
BPM	11	192	155.000
BPM	12	0	150.000
BPM	13	0	149.000
BPM	17	0	151.000
BPM	19	288	155.000
BPM	20	0	150.000
BPM	22	192	154.000
BPM	23	0	145.000
BPM	23	288	155.000
BPM	24	0	150.000
BPM	26	0	151.000
BPM	28	0	148.000
BPM	29	288	154.000
BPM	30	0	150.000
BPM	37	0	161.000
BPM	37	96	148.000
BPM	37	192	150.000
BPM	42	0	149.000
BPM	45	0	150.000
BPM	45	288	159.000
BPM	46	0	150.000
BPM	50	0	151.000
BPM	52	0	159.000
BPM	52	192	147.000
BPM	53	0	150.000
BPM	54	0	149.000
BPM	57	96	146.000
BPM	57	192	154.000
BPM	58	0	150.000
BPM	58	192	145.000
BPM	58	288	156.000
BPM	59	96	150.000
BPM	60	0	147.000
BPM	61	0	153.000
BPM	62	0	149.000
BPM	64	0	152.000
BPM	65	192	147.000
BPM	66	0	150.000
BPM	72	0	151.000
BPM	74	0	150.000
BPM	78	0	148.000
BPM	79	0	150.000
BPM	85	0	149.000
BPM	86	0	150.000
MET	0	0	4	4

HLD	3	0	3	96
HLD	3	0	5	96
HLD	3	144	2	432
HLD	3	144	4	432
STR	5	0	5
SCR	5	0	5	96	192	2
BRK	6	0	0
XTP	6	192	2
XTP	6	192	5
HLD	7	0	2	96
HLD	7	0	4	96
HLD	7	144	3	432
HLD	7	144	5	432
TAP	8	288	2
TAP	8	288	6
BRK	9	0	0
TAP	9	192	3
TAP	9	192	4
TAP	10	0	7
TAP	10	96	0
XTP	10	192	2
XTP	10	192	5
TAP	11	0	4
TAP	11	0	6
TAP	11	96	1
TAP	11	96	3
TAP	11	192	0
TAP	11	192	7
TAP	12	0	5
TAP	12	48	5
TAP	12	96	4
TAP	12	144	3
TAP	12	192	2
TAP	12	288	1
TAP	12	288	3
HLD	13	0	0	72
HLD	13	72	1	72
TAP	13	144	2
TAP	13	192	2
TAP	13	288	1
TAP	13	288	4
TAP	14	0	2
TAP	14	48	2
TAP	14	96	3
TAP	14	144	4
TAP	14	192	5
TAP	14	288	4
TAP	14	288	6
STR	15	0	7
SI_	15	0	7	96	96	4
TAP	15	192	3
TAP	15	288	1
TAP	15	288	5
TAP	16	0	2
TAP	16	48	2
TAP	16	96	3
TAP	16	144	4
TAP	16	192	5
TAP	16	288	4
TAP	16	288	6
HLD	17	0	7	72
HLD	17	72	6	72
TAP	17	144	5
TAP	17	192	5
TAP	17	288	3
TAP	17	288	6
TAP	18	0	5
TAP	18	48	5
TAP	18	96	4
TAP	18	144	3
TAP	18	192	2
TAP	18	288	1
TAP	18	288	3
HLD	19	0	0	96
TAP	19	96	7
TAP	19	192	2
TAP	19	192	5
TAP	19	288	3
TAP	19	288	4
HLD	20	0	7	384
TAP	20	96	4
TAP	20	192	4
TAP	20	288	4
STR	21	0	4
SI_	21	0	4	96	96	0
TAP	21	288	1
TAP	21	288	6
HLD	22	0	2	192
TAP	22	96	4
TAP	22	192	7
HLD	23	0	0	192
HLD	23	0	7	192
XTP	23	240	1
XTP	23	240	6
XTP	23	288	1
XTP	23	288	6
HLD	24	0	0	384
TAP	24	96	3
TAP	24	192	3
TAP	24	288	3
STR	25	0	3
SI_	25	0	3	96	96	7
TAP	25	288	1
TAP	25	288	6
HLD	26	0	5	192
TAP	26	96	3
TAP	26	192	2
TAP	26	240	2
TAP	26	336	5
TAP	27	0	4
TAP	27	0	5
TAP	27	96	6
TAP	27	96	7
TAP	27	192	0
TAP	27	192	1
TAP	27	288	2
TAP	27	288	3
TAP	28	0	3
TAP	28	0	5
TAP	28	96	2
TAP	28	144	2
TAP	28	192	3
TTP	28	288	1	B	0	M1
TTP	28	288	1	E	0	M1
TTP	28	288	6	B	0	M1
TTP	28	288	7	E	0	M1
TAP	29	0	3
TAP	29	0	5
TAP	29	96	2
TAP	29	144	2
TAP	29	192	3
TTP	29	288	1	B	0	M1
TTP	29	288	1	E	0	M1
TTP	29	288	6	B	0	M1
TTP	29	288	7	E	0	M1
HLD	30	0	5	192
HLD	30	192	7	192
TAP	31	0	0
TAP	31	96	1
TAP	31	192	2
TAP	31	240	2
TAP	31	288	3
TAP	31	288	5
TAP	32	0	2
TAP	32	0	4
TAP	32	96	5
TAP	32	144	5
TAP	32	192	4
TTP	32	288	1	B	0	M1
TTP	32	288	1	E	0	M1
TTP	32	288	6	B	0	M1
TTP	32	288	7	E	0	M1
TAP	33	0	2
TAP	33	0	4
TAP	33	96	5
TAP	33	144	5
TAP	33	192	4
TTP	33	288	1	B	0	M1
TTP	33	288	1	E	0	M1
TTP	33	288	6	B	0	M1
TTP	33	288	7	E	0	M1
HLD	34	0	2	192
HLD	34	192	0	192
TAP	35	0	7
TAP	35	96	6
TAP	35	192	5
TAP	35	240	5
TAP	35	288	2
TAP	35	288	4
TAP	36	0	3
TAP	36	0	5
TAP	36	96	1
TAP	36	96	6
TAP	36	144	1
TAP	36	144	6
TAP	36	192	1
TAP	36	192	6
TAP	36	288	2
TAP	36	288	5
STR	37	0	0
SCR	37	0	0	96	96	3
STR	37	0	7
SCL	37	0	7	96	96	4
BRK	37	288	1
BRK	37	288	6
TAP	38	0	5
TAP	38	48	5
TAP	38	96	4
TAP	38	96	6
TAP	38	144	4
HLD	38	144	6	96
TAP	38	240	7
TAP	38	288	7
TAP	39	0	2
TAP	39	48	2
TAP	39	96	1
TAP	39	96	3
HLD	39	144	1	96
TAP	39	144	3
TAP	39	240	0
TAP	39	288	0
HLD	40	0	6	72
HLD	40	72	5	72
TAP	40	144	4
TAP	40	192	4
TAP	40	288	3
TAP	40	288	5
TAP	41	0	1
TAP	41	0	4
TAP	41	96	3
TAP	41	96	6
TAP	41	192	0
TAP	41	240	0
TAP	41	288	1
TAP	41	288	6
STR	42	0	5
SI_	42	0	5	96	96	2
TAP	42	192	0
TAP	42	288	0
STR	43	0	2
SI_	43	0	2	96	96	5
TAP	43	192	7
TAP	43	288	7
STR	44	0	5
SI_	44	0	5	96	96	2
TAP	44	192	0
TAP	44	288	0
XTP	45	0	0
XTP	45	0	7
XTP	45	72	0
XTP	45	72	7
XTP	45	144	2
XTP	45	144	5
XTP	45	192	2
XTP	45	192	5
BRK	45	288	1
BRK	45	288	6
TAP	46	0	2
TAP	46	48	2
TAP	46	96	1
TAP	46	96	3
HLD	46	144	1	96
TAP	46	144	3
TAP	46	240	0
TAP	46	288	0
TAP	47	0	5
TAP	47	48	5
TAP	47	96	4
TAP	47	96	6
TAP	47	144	4
HLD	47	144	6	96
TAP	47	240	7
TAP	47	288	7
HLD	48	0	1	72
HLD	48	72	2	72
TAP	48	144	3
TAP	48	192	3
TAP	48	240	4
TAP	48	336	2
TAP	48	336	5
TAP	49	48	6
TAP	49	48	7
TAP	49	144	0
TAP	49	144	1
TAP	49	192	0
TAP	49	192	1
TAP	49	288	2
TAP	49	288	4
HLD	50	0	5	96
HLD	50	96	7	96
HLD	50	192	0	96
TAP	50	288	2
TAP	51	0	2
TAP	51	0	3
TAP	51	96	4
TAP	51	96	5
TAP	51	192	2
TAP	51	192	6
TTP	51	288	0	C	1	M1
XTP	52	0	0
XTP	52	48	0
XTP	52	96	7
XTP	52	144	7
XTP	52	192	0
XTP	52	240	0
XTP	52	288	7
XTP	52	336	7
TAP	53	0	4
TAP	53	0	6
TAP	53	96	1
TAP	53	96	3
TAP	53	192	0
TAP	53	192	7
TAP	53	240	0
TAP	53	240	7
TAP	53	288	1
TAP	53	288	6
STR	54	0	5
SI_	54	0	5	96	96	1
TAP	54	192	0
TAP	54	240	0
TAP	54	288	7
TAP	54	336	7
HLD	55	0	1	96
HLD	55	96	3	96
HLD	55	192	4	96
HLD	55	288	6	96
TAP	56	0	0
TAP	56	48	0
TAP	56	96	7
TAP	56	144	7
TAP	56	192	3
TAP	56	192	6
TAP	56	288	1
TAP	56	288	4
TAP	57	0	5
TAP	57	48	5
TAP	57	96	3
TAP	57	144	4
TAP	57	192	2
TAP	57	240	2
TAP	57	288	3
TAP	57	336	1
STR	58	0	7
SI_	58	0	7	96	96	3
TAP	58	192	2
TAP	58	240	2
TAP	58	288	3
TAP	58	336	4
HLD	59	0	5	96
HLD	59	96	7	96
HLD	59	192	0	96
HLD	59	288	2	96
TAP	60	0	6
TAP	60	48	6
TAP	60	96	7
TAP	60	144	0
TAP	60	192	1
TAP	60	240	1
TAP	60	288	0
TAP	60	336	7
HLD	61	0	6	96
HLD	61	96	4	96
HLD	61	192	2	96
BRK	61	288	0
TAP	62	0	5
TAP	62	48	5
TAP	62	96	4
TAP	62	144	3
TAP	62	192	2
TAP	62	288	1
TAP	62	288	3
HLD	63	0	0	72
HLD	63	72	1	72
TAP	63	144	2
TAP	63	192	2
TAP	63	288	1
TAP	63	288	4
TAP	64	0	2
TAP	64	48	2
TAP	64	96	3
TAP	64	144	4
TAP	64	192	5
TAP	64	288	4
TAP	64	288	6
TAP	65	0	0
TAP	65	0	7
TAP	65	96	1
TAP	65	96	3
TAP	65	192	3
TAP	65	192	4
TAP	65	288	2
TAP	65	288	5
STR	66	0	7
SCL	66	0	7	96	192	2
STR	67	0	0
SCR	67	0	0	96	192	5
HLD	68	0	7	768
HLD	69	0	0	384
HLD	70	192	6	192
HLD	71	0	4	192
HLD	71	192	3	192
HLD	72	0	1	192
TAP	72	192	6
TAP	73	0	0
TAP	73	0	7
TAP	73	72	0
TAP	73	72	7
TAP	73	144	2
TAP	73	144	5
TAP	73	192	2
TAP	73	192	5
BRK	73	288	1
BRK	73	288	6
TAP	74	0	5
TAP	74	48	5
TAP	74	96	4
TAP	74	96	6
TAP	74	144	4
HLD	74	144	6	96
TAP	74	240	7
TAP	74	288	7
TAP	75	0	2
TAP	75	48	2
TAP	75	96	1
TAP	75	96	3
HLD	75	144	1	96
TAP	75	144	3
TAP	75	240	0
TAP	75	288	0
HLD	76	0	6	72
HLD	76	72	5	72
TAP	76	144	4
TAP	76	192	4
TAP	76	240	3
TAP	76	336	2
TAP	76	336	5
TAP	77	48	0
TAP	77	48	1
TAP	77	144	6
TAP	77	144	7
TAP	77	192	6
TAP	77	192	7
TAP	77	288	3
TAP	77	288	5
HLD	78	0	2	96
HLD	78	96	0	96
HLD	78	192	7	96
TAP	78	288	5
TAP	79	0	4
TAP	79	0	5
TAP	79	96	2
TAP	79	96	3
TAP	79	192	1
TAP	79	192	5
XTP	80	0	0
XTP	80	24	7
XTP	80	48	0
XTP	80	72	7
XTP	80	96	0
XTP	80	120	7
XTP	80	144	0
XTP	80	168	7
XTP	80	192	0
XTP	80	216	7
XTP	80	240	0
XTP	80	264	7
XTP	80	288	0
XTP	80	312	7
XTP	80	336	0
XTP	80	360	7
XTP	81	0	1
XTP	81	24	6
XTP	81	48	1
XTP	81	72	6
XTP	81	96	1
XTP	81	120	6
XTP	81	144	1
XTP	81	168	6
XTP	81	192	1
BRK	81	288	0
HLD	82	0	2	96
HLD	82	0	4	96
HLD	82	144	3	240
HLD	82	144	5	432
TAP	83	192	3
TAP	83	288	3
STR	84	0	2
SCL	84	0	2	96	192	5
TAP	84	0	4
BRK	85	0	7
XTP	85	192	2
XTP	85	192	5
HLD	86	0	3	96
HLD	86	0	5	96
HLD	86	144	2	432
HLD	86	144	4	240
TAP	87	192	4
TAP	87	288	1
TAP	87	288	5
BRK	88	0	7
TAP	88	192	3
TAP	88	192	5
TAP	88	264	3
TAP	88	264	5
TAP	88	336	3
TAP	88	336	5
TAP	89	0	2
TAP	89	48	3
TAP	89	96	4
TAP	89	144	5
TAP	89	192	2
TAP	89	192	4
TAP	89	264	2
TAP	89	264	4
TAP	89	336	2
TAP	89	336	4
STR	90	0	1
SI_	90	0	1	96	48	4
STR	90	0	6
SI_	90	0	6	96	48	3
XTP	90	192	0
XTP	90	192	7
XTP	90	264	3
XTP	90	264	4
XTP	90	336	2
XTP	90	336	5

T_REC_TAP	321
T_REC_BRK	12
T_REC_XTP	57
T_REC_HLD	68
T_REC_XHO	0
T_REC_STR	16
T_REC_BST	0
T_REC_XST	0
T_REC_TTP	17
T_REC_THO	0
T_REC_SLD	16
T_REC_ALL	507
T_NUM_TAP	411
T_NUM_BRK	12
T_NUM_HLD	68
T_NUM_SLD	16
T_NUM_ALL	507
T_JUDGE_TAP	423
T_JUDGE_HLD	240
T_JUDGE_SLD	16
T_JUDGE_ALL	679
TTM_EACHPAIRS	115
TTM_SCR_TAP	205500
TTM_SCR_BRK	31200
TTM_SCR_HLD	68000
TTM_SCR_SLD	24000
TTM_SCR_ALL	328700
TTM_SCR_S	317700
TTM_SCR_SS	327500
TTM_RAT_ACV	10036

