VERSION	0.00.00	1.03.00
FES_MODE	0
BPM_DEF	150.000	150.000	163.000	135.000
MET_DEF	4	4
RESOLUTION	384
CLK_DEF	384
COMPATIBLE_CODE	MA2

BPM	0	0	150.000
BPM	2	288	154.000
BPM	3	0	155.000
BPM	3	96	146.000
BPM	4	0	151.000
BPM	4	288	163.000
BPM	5	0	146.000
BPM	5	288	150.000
BPM	6	0	155.000
BPM	6	288	135.000
BPM	7	0	150.000
BPM	8	0	147.000
BPM	8	288	157.000
BPM	9	0	150.000
BPM	11	192	155.000
BPM	12	0	150.000
BPM	13	0	149.000
BPM	17	0	151.000
BPM	19	288	155.000
BPM	20	0	150.000
BPM	22	192	154.000
BPM	23	0	145.000
BPM	23	288	155.000
BPM	24	0	150.000
BPM	26	0	151.000
BPM	28	0	148.000
BPM	29	288	154.000
BPM	30	0	150.000
BPM	37	0	161.000
BPM	37	96	148.000
BPM	37	192	150.000
BPM	42	0	149.000
BPM	45	0	150.000
BPM	45	288	159.000
BPM	46	0	150.000
BPM	50	0	151.000
BPM	52	0	159.000
BPM	52	192	147.000
BPM	53	0	150.000
BPM	54	0	149.000
BPM	57	96	146.000
BPM	57	192	154.000
BPM	58	0	150.000
BPM	58	192	145.000
BPM	58	288	156.000
BPM	59	96	150.000
BPM	60	0	147.000
BPM	61	0	153.000
BPM	62	0	149.000
BPM	64	0	152.000
BPM	65	192	147.000
BPM	66	0	150.000
BPM	72	0	151.000
BPM	74	0	150.000
BPM	78	0	148.000
BPM	79	0	150.000
BPM	85	0	149.000
BPM	86	0	150.000
MET	0	0	4	4

XHO	3	0	5	384
HLD	4	0	4	384
HLD	5	0	3	384
XTP	6	0	2
TAP	6	192	2
TAP	6	192	3
HLD	7	0	2	384
HLD	8	0	3	384
HLD	9	0	4	384
XTP	10	0	5
TAP	10	192	4
TAP	10	192	5
TAP	11	0	3
TAP	11	96	3
TAP	11	96	4
XTP	11	192	2
XTP	11	192	5
TAP	12	0	1
TAP	12	96	1
XTP	12	192	0
XTP	12	192	1
TAP	13	0	6
TAP	13	96	6
XTP	13	192	6
XTP	13	192	7
TAP	14	0	1
TAP	14	96	1
TAP	14	192	2
TAP	14	288	2
TAP	15	0	3
TAP	15	96	3
XTP	15	192	2
XTP	15	192	4
TAP	16	0	5
TAP	16	96	5
XTP	16	192	4
XTP	16	192	5
TAP	17	0	2
TAP	17	96	2
XTP	17	192	2
XTP	17	192	3
TAP	18	0	5
TAP	18	96	5
TAP	18	192	6
TAP	18	288	6
XTP	19	0	7
XTP	19	96	0
XTP	19	96	7
BRK	19	192	1
BRK	19	192	6
HLD	20	0	5	192
TAP	20	192	4
TAP	20	288	4
HLD	21	0	3	192
TAP	21	192	4
TAP	21	288	4
HLD	22	0	5	192
TAP	22	192	4
TAP	22	288	3
TAP	23	0	2
TAP	23	96	2
XTP	23	192	1
XTP	23	192	3
HLD	24	0	2	192
TAP	24	192	3
TAP	24	288	3
HLD	25	0	4	192
TAP	25	192	3
TAP	25	288	3
TAP	26	0	2
TAP	26	96	2
TAP	26	192	1
TAP	26	288	1
TAP	27	0	0
TAP	27	96	0
TAP	27	96	7
BRK	27	192	1
BRK	27	192	6
TTP	28	0	6	B	0	L1
TTP	28	192	4	B	0	L1
TTP	29	0	2	B	0	L1
TTP	29	192	1	B	0	L1
TTP	30	0	3	B	0	L1
TTP	30	192	5	B	0	L1
TTP	31	0	0	C	0	L1
TTP	32	0	1	B	0	L1
TTP	32	192	3	B	0	L1
TTP	33	0	5	B	0	L1
TTP	33	192	6	B	0	L1
TTP	34	0	4	B	0	L1
TTP	34	192	2	B	0	L1
TTP	35	0	0	C	0	L1
TTP	36	0	3	B	0	L1
TTP	36	0	4	B	0	L1
TTP	36	192	2	B	0	L1
TTP	36	192	5	B	0	L1
TTP	37	0	0	C	1	L1
TTP	37	0	1	B	0	L1
TTP	37	0	6	B	0	L1
TAP	38	0	1
XTP	38	96	0
XTP	38	96	1
TAP	38	192	1
XTP	38	288	0
XTP	38	288	1
TAP	39	0	6
TAP	39	96	6
TAP	39	96	7
XTP	39	192	0
XTP	39	192	5
HLD	40	0	5	96
TAP	40	96	4
HLD	40	192	2	96
TAP	40	288	3
TAP	41	0	3
TAP	41	0	4
TAP	41	96	2
TAP	41	96	5
XTP	41	192	1
XTP	41	192	6
STR	42	0	6
SCL	42	0	6	96	192	3
STR	43	0	2
SCR	43	0	2	96	192	5
STR	44	0	6
SI_	44	0	6	96	192	2
XTP	45	0	1
XTP	45	96	0
XTP	45	96	7
BRK	45	192	1
BRK	45	192	6
TAP	46	0	6
XTP	46	96	6
XTP	46	96	7
TAP	46	192	6
XTP	46	288	6
XTP	46	288	7
TAP	47	0	1
TAP	47	96	0
TAP	47	96	1
XTP	47	192	2
XTP	47	192	7
HLD	48	0	2	96
TAP	48	96	3
HLD	48	192	5	96
TAP	48	288	4
TAP	49	0	3
TAP	49	0	4
TAP	49	96	2
TAP	49	96	5
XTP	49	192	1
XTP	49	192	6
STR	50	0	1
SCR	50	0	1	96	192	4
XTP	51	0	5
XTP	51	96	4
XTP	51	96	5
BRK	51	192	3
BRK	51	192	6
STR	52	0	3
SI_	52	0	3	96	192	0
STR	52	0	4
SI_	52	0	4	96	192	7
TAP	53	0	0
TAP	53	0	7
TAP	53	96	1
TAP	53	96	6
XTP	53	192	2
XTP	53	192	5
STR	54	0	0
SI_	54	0	0	96	192	5
STR	54	0	1
SI_	54	0	1	96	192	4
STR	55	0	6
SI_	55	0	6	96	192	3
STR	55	0	7
SI_	55	0	7	96	192	2
XTP	56	0	1
XTP	56	96	1
TAP	56	192	2
TAP	56	288	3
TAP	57	0	4
TAP	57	96	5
XTP	57	192	4
XTP	57	192	6
STR	58	0	6
SI_	58	0	6	96	192	3
STR	58	0	7
SI_	58	0	7	96	192	2
STR	59	0	0
SI_	59	0	0	96	192	5
STR	59	0	1
SI_	59	0	1	96	192	4
XTP	60	0	6
XTP	60	96	6
TAP	60	192	7
TAP	60	288	7
TAP	61	0	0
TAP	61	96	0
TAP	61	96	7
XTP	61	192	1
XTP	61	192	6
TAP	62	0	6
TAP	62	96	6
XTP	62	192	6
XTP	62	192	7
XTP	62	288	6
XTP	62	288	7
TAP	63	0	0
TAP	63	96	0
XTP	63	192	1
XTP	63	192	7
XTP	63	288	1
XTP	63	288	7
TAP	64	0	0
TAP	64	96	0
TAP	64	192	7
TAP	64	288	7
XTP	65	0	0
XTP	65	0	7
XTP	65	96	0
XTP	65	96	7
BRK	65	192	1
BRK	65	192	6
HLD	66	0	2	768
HLD	68	0	3	768
HLD	70	0	4	768
XTP	72	0	5
XTP	72	192	5
TAP	73	0	6
TAP	73	96	0
TAP	73	96	7
BRK	73	192	1
BRK	73	192	6
TAP	74	0	1
XTP	74	96	0
XTP	74	96	1
TAP	74	192	1
XTP	74	288	0
XTP	74	288	1
TAP	75	0	2
TAP	75	96	2
TAP	75	96	3
XTP	75	192	1
XTP	75	192	4
HLD	76	0	2	96
TAP	76	96	3
HLD	76	192	5	96
TAP	76	288	4
TAP	77	0	3
TAP	77	0	4
TAP	77	96	2
TAP	77	96	5
XTP	77	192	1
XTP	77	192	6
STR	78	0	6
SCL	78	0	6	96	192	3
XTP	79	0	2
XTP	79	96	2
XTP	79	96	3
BRK	79	192	1
BRK	79	192	4
STR	80	0	3
SCL	80	0	3	96	192	0
STR	80	0	4
SCR	80	0	4	96	192	7
XTP	81	0	0
XTP	81	0	7
XTP	81	96	0
XTP	81	96	7
BRK	81	192	1
BRK	81	192	6
XHO	82	0	2	384
HLD	83	0	3	384
HLD	84	0	4	384
XTP	85	0	5
TAP	85	192	4
TAP	85	192	6
HLD	86	0	5	384
HLD	87	0	4	384
HLD	88	0	3	384
XTP	89	0	2
TAP	89	192	1
TAP	89	192	3
TTP	90	0	2	B	0	L1
THO	90	192	0	144	C	0	L1
TTP	90	192	1	B	0	L1
TTP	90	192	5	B	0	L1

T_REC_TAP	105
T_REC_BRK	16
T_REC_XTP	82
T_REC_HLD	24
T_REC_XHO	2
T_REC_STR	17
T_REC_BST	0
T_REC_XST	0
T_REC_TTP	24
T_REC_THO	1
T_REC_SLD	17
T_REC_ALL	288
T_NUM_TAP	228
T_NUM_BRK	16
T_NUM_HLD	27
T_NUM_SLD	17
T_NUM_ALL	288
T_JUDGE_TAP	244
T_JUDGE_HLD	179
T_JUDGE_SLD	17
T_JUDGE_ALL	440
TTM_EACHPAIRS	67
TTM_SCR_TAP	114000
TTM_SCR_BRK	41600
TTM_SCR_HLD	27000
TTM_SCR_SLD	25500
TTM_SCR_ALL	208100
TTM_SCR_S	200350
TTM_SCR_SS	206500
TTM_RAT_ACV	10077

