VERSION	0.00.00	1.03.00
FES_MODE	0
BPM_DEF	150.000	150.000	163.000	135.000
MET_DEF	4	4
RESOLUTION	384
CLK_DEF	384
COMPATIBLE_CODE	MA2

BPM	0	0	150.000
BPM	2	288	154.000
BPM	3	0	155.000
BPM	3	96	146.000
BPM	4	0	151.000
BPM	4	288	163.000
BPM	5	0	146.000
BPM	5	288	150.000
BPM	6	0	155.000
BPM	6	288	135.000
BPM	7	0	150.000
BPM	8	0	147.000
BPM	8	288	157.000
BPM	9	0	150.000
BPM	11	192	155.000
BPM	12	0	150.000
BPM	13	0	149.000
BPM	17	0	151.000
BPM	19	288	155.000
BPM	20	0	150.000
BPM	22	192	154.000
BPM	23	0	145.000
BPM	23	288	155.000
BPM	24	0	150.000
BPM	26	0	151.000
BPM	28	0	148.000
BPM	29	288	154.000
BPM	30	0	150.000
BPM	37	0	161.000
BPM	37	96	148.000
BPM	37	192	150.000
BPM	42	0	149.000
BPM	45	0	150.000
BPM	45	288	159.000
BPM	46	0	150.000
BPM	50	0	151.000
BPM	52	0	159.000
BPM	52	192	147.000
BPM	53	0	150.000
BPM	54	0	149.000
BPM	57	96	146.000
BPM	57	192	154.000
BPM	58	0	150.000
BPM	58	192	145.000
BPM	58	288	156.000
BPM	59	96	150.000
BPM	60	0	147.000
BPM	61	0	153.000
BPM	62	0	149.000
BPM	64	0	152.000
BPM	65	192	147.000
BPM	66	0	150.000
BPM	72	0	151.000
BPM	74	0	150.000
BPM	78	0	148.000
BPM	79	0	150.000
BPM	85	0	149.000
BPM	86	0	150.000
MET	0	0	4	4

XTP	3	0	0
XTP	5	0	7
TAP	7	0	0
TAP	9	0	7
TAP	11	0	0
TAP	11	0	7
TAP	12	0	0
TAP	12	192	0
TAP	13	0	0
TAP	14	0	1
TAP	14	192	1
TAP	15	0	1
TAP	16	0	2
TAP	16	192	2
TAP	17	0	2
TAP	18	0	3
TAP	18	192	3
TAP	19	0	3
TAP	19	0	4
TAP	20	0	5
TAP	20	192	5
TAP	21	0	5
TAP	22	0	6
TAP	22	192	6
HLD	23	0	6	192
TAP	24	0	7
TAP	24	192	7
TAP	25	0	7
TAP	26	0	0
TAP	26	192	0
BRK	27	0	0
BRK	27	0	7
HLD	28	0	0	192
HLD	29	0	0	192
TTP	30	0	7	B	0	L1
TTP	31	0	0	B	0	L1
TTP	31	0	6	B	0	L1
HLD	32	0	7	192
HLD	33	0	7	192
TTP	34	0	0	B	0	L1
TTP	35	0	1	B	0	L1
TTP	35	0	7	B	0	L1
THO	36	0	0	384	C	1	L1
TAP	38	0	7
TAP	38	96	7
TAP	38	192	7
TAP	39	0	6
TAP	39	96	6
TAP	39	192	6
HLD	40	0	5	192
TAP	41	0	4
TAP	41	96	4
TAP	41	192	3
TAP	41	192	4
HLD	42	0	2	192
HLD	42	0	3	192
HLD	43	0	4	192
HLD	43	0	5	192
STR	44	0	3
SI_	44	0	3	96	288	0
STR	44	0	4
SI_	44	0	4	96	288	7
TAP	46	0	0
TAP	46	96	0
TAP	46	192	0
TAP	47	0	1
TAP	47	96	1
TAP	47	192	1
TAP	48	0	2
TAP	48	0	3
TAP	48	192	3
TAP	48	192	4
HLD	49	0	4	192
HLD	49	0	5	192
TAP	50	0	2
TAP	50	0	3
TAP	50	192	4
TAP	50	192	5
TAP	51	0	3
TAP	51	0	4
TAP	51	96	3
TAP	51	96	4
BRK	51	192	3
BRK	51	192	4
STR	52	0	3
SI_	52	0	3	96	288	0
STR	52	0	4
SI_	52	0	4	96	288	7
TAP	54	0	7
TAP	54	192	7
TAP	55	0	6
TAP	55	192	6
TAP	56	0	5
TAP	56	192	5
HLD	57	0	3	192
HLD	57	0	4	192
TAP	58	0	2
TAP	58	96	2
TAP	58	192	2
TAP	59	0	1
TAP	59	96	1
TAP	59	192	1
STR	60	0	0
SI_	60	0	0	96	288	4
TAP	62	0	5
TAP	62	192	5
HLD	63	0	3	192
HLD	63	0	4	192
TAP	64	0	2
TAP	64	192	2
TAP	65	0	3
TAP	65	0	4
TTP	66	0	5	B	0	L1
TTP	67	0	6	B	0	L1
TTP	68	0	7	B	0	L1
TTP	69	0	0	B	0	L1
TTP	70	0	1	B	0	L1
TTP	71	0	2	B	0	L1
THO	72	0	0	384	C	1	L1
TAP	74	0	0
TAP	74	96	0
TAP	74	192	0
TAP	75	0	1
TAP	75	96	1
TAP	75	192	1
HLD	76	0	2	192
HLD	76	0	3	192
HLD	77	0	4	192
HLD	77	0	5	192
TAP	78	0	3
TAP	78	96	3
TAP	78	192	4
TAP	78	288	4
TAP	79	0	3
TAP	79	0	4
TAP	79	96	3
TAP	79	96	4
BRK	79	192	3
BRK	79	192	4
XST	80	0	3
SI_	80	0	3	96	288	0
XST	80	0	4
SI_	80	0	4	96	288	7
HLD	82	0	0	384
HLD	84	0	7	384
TAP	86	0	0
TAP	86	192	0
TAP	87	0	1
TAP	87	192	1
TAP	88	0	2
TAP	88	192	2
TAP	89	0	3
TAP	89	192	3
HLD	90	0	3	192
HLD	90	0	4	192

T_REC_TAP	95
T_REC_BRK	6
T_REC_XTP	2
T_REC_HLD	24
T_REC_XHO	0
T_REC_STR	5
T_REC_BST	0
T_REC_XST	2
T_REC_TTP	12
T_REC_THO	2
T_REC_SLD	7
T_REC_ALL	155
T_NUM_TAP	116
T_NUM_BRK	6
T_NUM_HLD	26
T_NUM_SLD	7
T_NUM_ALL	155
T_JUDGE_TAP	122
T_JUDGE_HLD	120
T_JUDGE_SLD	7
T_JUDGE_ALL	249
TTM_EACHPAIRS	26
TTM_SCR_TAP	58000
TTM_SCR_BRK	15600
TTM_SCR_HLD	26000
TTM_SCR_SLD	10500
TTM_SCR_ALL	110100
TTM_SCR_S	106250
TTM_SCR_SS	109500
TTM_RAT_ACV	10054

