VERSION	0.00.00	1.03.00
FES_MODE	0
BPM_DEF	190.000	190.000	190.000	190.000
MET_DEF	4	4
RESOLUTION	384
CLK_DEF	384
COMPATIBLE_CODE	MA2

BPM	0	0	190.000
MET	0	0	4	4

TAP	1	0	3
TAP	1	0	4
TAP	1	96	3
TAP	1	96	4
TAP	1	192	2
TAP	1	192	3
TAP	1	240	2
TAP	1	240	3
TAP	1	288	2
TAP	1	288	3
TAP	2	0	4
TAP	2	0	5
TAP	2	48	4
TAP	2	48	5
TAP	2	96	4
TAP	2	96	5
TAP	2	144	4
TAP	2	144	5
TAP	2	192	4
TAP	2	192	5
TTP	2	288	5	B	0	M1
TTP	2	288	6	B	0	M1
TAP	3	0	3
TAP	3	0	4
TAP	3	96	3
TAP	3	96	4
TAP	3	192	4
TAP	3	192	5
TAP	3	240	4
TAP	3	240	5
TAP	3	288	4
TAP	3	288	5
TAP	4	0	2
TAP	4	0	3
TAP	4	48	2
TAP	4	48	3
TAP	4	96	2
TAP	4	96	3
TAP	4	144	2
TAP	4	144	3
TAP	4	192	2
TAP	4	192	3
STR	4	288	0
SCR	4	288	0	96	288	7
TTP	5	0	0	C	1	M1
TAP	6	0	0
TAP	6	96	1
TAP	6	192	2
TAP	6	288	3
TAP	6	288	4
TTP	7	0	0	B	0	M1
THO	7	0	0	288	C	0	M1
TTP	7	0	6	B	0	M1
TTP	7	0	7	B	0	M1
BST	8	0	6
SI_	8	0	6	96	48	2
BST	8	96	0
SI_	8	96	0	96	48	4
BRK	8	192	7
TAP	9	0	4
TAP	9	0	5
TAP	9	96	4
TAP	9	96	5
TAP	9	192	1
TAP	9	240	0
TAP	9	288	1
TAP	9	336	0
TAP	10	0	2
TAP	10	96	2
TAP	10	96	3
TAP	10	192	6
TAP	10	240	7
TAP	10	288	6
BRK	10	336	7
TAP	11	0	5
TAP	11	96	4
TAP	11	96	5
TAP	11	192	2
TAP	11	192	3
TAP	11	288	1
TAP	11	288	6
XST	12	0	0
SXL	12	0	0	96	144	1
XST	12	0	7
SXR	12	0	7	96	144	6
XTP	13	0	1
XTP	13	0	6
TAP	13	48	2
TAP	13	72	3
TAP	13	96	2
TAP	13	144	1
TAP	13	192	0
TAP	13	192	6
TAP	13	240	2
TAP	13	288	3
TAP	13	288	4
TAP	13	336	5
TAP	14	0	3
TAP	14	0	6
TAP	14	48	5
TAP	14	72	4
TAP	14	96	5
TAP	14	144	6
TAP	14	192	1
TAP	14	192	7
TAP	14	240	2
TAP	14	288	2
TAP	14	288	3
TAP	15	0	3
TAP	15	0	4
TAP	15	48	2
TAP	15	72	3
TAP	15	96	1
TAP	15	144	1
TAP	15	192	0
TAP	15	192	1
TAP	15	240	7
TAP	15	288	4
TAP	15	288	6
TAP	15	336	5
TAP	16	0	3
STR	16	0	4
SI_	16	0	4	96	48	0
STR	16	96	2
SCR	16	96	2	96	48	5
TAP	16	192	6
BRK	16	288	1
BRK	16	288	7
TAP	17	0	3
TAP	17	0	4
TAP	17	48	5
TAP	17	72	4
TAP	17	96	6
TAP	17	144	6
TAP	17	192	6
TAP	17	192	7
TAP	17	240	0
TAP	17	288	1
TAP	17	288	3
TAP	17	336	2
STR	18	0	3
SI_	18	0	3	96	48	7
TAP	18	0	4
STR	18	96	5
SCL	18	96	5	96	48	2
TAP	18	192	1
BRK	18	288	0
BRK	18	288	6
TTP	19	0	2	B	0	M1
TTP	19	96	0	B	0	M1
TTP	19	96	1	E	0	M1
TTP	19	192	5	B	0	M1
TTP	19	288	7	B	0	M1
TTP	19	288	7	E	0	M1
TTP	20	0	3	E	0	M1
TTP	20	96	1	B	0	M1
TTP	20	96	2	E	0	M1
TTP	20	192	4	E	0	M1
TTP	20	288	0	C	0	M1
TAP	21	0	0
TAP	21	0	7
TAP	21	96	6
TAP	21	144	4
TAP	21	144	6
TAP	21	240	1
TAP	21	288	1
TAP	21	288	3
TAP	22	0	5
TAP	22	48	4
TAP	22	96	3
TAP	22	96	5
TAP	22	192	2
TAP	22	192	4
TAP	22	288	1
TAP	22	288	5
HLD	23	0	2	768
TAP	23	96	3
TAP	23	192	4
TAP	23	288	3
TAP	24	0	4
TAP	24	48	4
TAP	24	96	3
TTP	24	192	4	B	0	M1
TTP	24	288	1	B	0	M1
HLD	25	0	5	480
TAP	25	96	4
TAP	25	192	2
TAP	25	288	3
TAP	26	0	1
TAP	26	48	1
TAP	26	96	1
TAP	26	192	2
TAP	26	192	3
TAP	26	288	4
TAP	26	288	5
HLD	27	0	2	72
TAP	27	0	3
TAP	27	72	3
TAP	27	96	2
TAP	27	144	1
TAP	27	144	4
TAP	27	192	1
TAP	27	192	4
TAP	27	288	3
TAP	27	288	4
TAP	28	0	4
HLD	28	0	5	72
TAP	28	72	4
TAP	28	96	5
TAP	28	144	3
TAP	28	144	6
TAP	28	192	3
TAP	28	192	6
TAP	28	288	0
TAP	28	288	7
STR	29	0	1
SXL	29	0	1	96	48	3
STR	29	96	7
SXR	29	96	7	96	48	5
STR	29	192	0
SXL	29	192	0	96	48	2
STR	29	288	6
SXR	29	288	6	96	48	4
STR	30	0	1
SXL	30	0	1	96	48	3
TAP	30	96	5
BRK	30	192	2
BRK	30	192	7
HLD	31	0	1	768
TAP	31	96	3
TAP	31	192	5
TAP	31	288	3
TAP	32	0	4
TAP	32	48	4
TAP	32	96	3
TTP	32	192	5	E	0	M1
TTP	32	288	2	E	0	M1
HLD	33	0	6	576
TAP	33	96	5
TAP	33	192	7
TAP	33	288	5
TAP	34	0	0
TAP	34	48	0
TAP	34	96	7
TAP	34	192	1
TAP	34	288	2
TAP	34	288	7
TAP	35	0	0
HLD	35	0	1	72
TAP	35	72	0
TAP	35	96	1
TAP	35	144	2
TAP	35	144	7
TAP	35	192	2
TAP	35	192	7
TAP	35	288	3
TAP	35	288	4
HLD	36	0	6	72
TAP	36	0	7
TAP	36	72	7
TAP	36	96	6
TAP	36	144	0
TAP	36	144	5
TAP	36	192	0
TAP	36	192	5
TAP	36	288	1
TAP	36	288	6
STR	37	0	4
SI_	37	0	4	96	48	0
TAP	37	0	5
TAP	37	96	7
TAP	37	192	2
STR	37	192	3
SI_	37	192	3	96	48	7
TAP	37	288	0
STR	38	0	2
SI_	38	0	2	96	48	7
STR	38	0	6
SI_	38	0	6	96	48	3
TAP	38	96	2
TAP	38	96	6
BRK	38	192	1
BRK	38	192	5
HLD	39	0	2	96
HLD	39	0	4	96
HLD	39	192	3	96
HLD	39	192	5	96
TAP	40	0	2
TAP	40	0	4
TAP	40	96	3
TAP	40	96	5
TAP	40	192	2
TAP	40	192	4
TAP	40	288	0
TAP	41	0	6
TAP	41	0	7
TAP	41	96	6
TAP	41	96	7
TAP	41	192	0
TAP	41	192	1
TAP	41	240	0
TAP	41	240	1
TAP	41	288	0
TAP	41	288	1
TAP	42	0	6
TAP	42	0	7
TAP	42	48	6
TAP	42	48	7
TAP	42	96	0
TAP	42	96	5
TAP	42	144	1
TAP	42	144	4
TAP	42	192	1
TAP	42	192	4
HLD	43	0	2	96
HLD	43	0	4	96
HLD	43	192	3	96
HLD	43	192	5	96
TAP	44	0	2
TAP	44	0	4
TAP	44	96	3
TAP	44	96	5
TAP	44	192	3
TAP	44	192	4
TAP	44	288	0
STR	44	288	7
SCL	44	288	7	96	288	2
THO	45	0	0	384	C	1	M1
BRK	46	0	7
BRK	46	240	0
BRK	46	288	0
BRK	46	336	0
XTP	47	0	0
STR	47	0	5
SXR	47	0	5	96	48	4
TAP	47	96	1
TAP	47	144	1
STR	47	192	1
SXR	47	192	1	96	48	0
TAP	47	192	6
TAP	47	288	5
TAP	47	336	5
TAP	48	0	4
STR	48	0	6
SXL	48	0	6	96	48	7
TAP	48	96	3
XTP	48	192	2
XTP	48	192	4
TAP	48	288	0
STR	48	288	1
SI_	48	288	1	96	48	4
TAP	48	336	7
TAP	49	0	0
TAP	49	0	1
STR	49	96	6
SI_	49	96	6	96	48	3
TAP	49	96	7
TAP	49	144	0
TAP	49	192	6
TAP	49	192	7
TAP	49	288	2
TAP	49	336	1
TAP	50	0	1
TAP	50	0	4
TAP	50	48	6
TAP	50	72	7
TAP	50	96	6
TAP	50	144	5
TAP	50	192	3
TAP	50	192	5
BRK	50	240	0
BRK	50	288	0
STR	51	0	6
SI_	51	0	6	96	48	3
TAP	51	48	6
STR	51	96	2
SI_	51	96	2	96	48	7
TAP	51	144	2
STR	51	192	5
SI_	51	192	5	96	48	0
TAP	51	240	5
STR	51	288	1
SI_	51	288	1	96	48	4
TAP	51	336	1
STR	52	0	6
SCL	52	0	6	96	48	3
TAP	52	48	6
STR	52	96	3
SI_	52	96	3	96	48	7
XTP	52	192	0
XTP	52	288	1
XTP	52	288	6
TAP	53	0	5
TAP	53	24	4
TAP	53	48	5
TAP	53	72	4
BRK	53	96	6
TAP	53	192	2
TAP	53	216	3
TAP	53	240	2
TAP	53	264	3
BRK	53	288	1
BST	54	0	6
SCL	54	0	6	96	48	3
BST	54	48	0
SI_	54	48	0	96	48	4
BRK	54	96	6
BRK	54	144	0
BST	54	192	7
SF_	54	192	7	96	48	3
TTP	54	288	0	B	0	M1
TTP	54	288	0	C	1	M1
TTP	54	288	6	B	0	M1
TTP	54	288	7	B	0	M1
XTP	55	0	1
XTP	55	0	5
TAP	55	96	1
TAP	55	96	5
TAP	55	144	0
STR	55	192	1
SI_	55	192	1	96	48	5
TAP	55	192	3
TAP	55	288	5
TAP	55	336	6
STR	56	0	7
SI_	56	0	7	96	48	3
TAP	56	96	3
TAP	56	144	2
TAP	56	192	1
TAP	56	192	4
STR	56	288	3
SCL	56	288	3	96	96	0
TAP	57	0	0
STR	57	96	7
SCL	57	96	7	96	96	4
TAP	57	192	4
TAP	57	288	2
TAP	58	0	2
TAP	58	0	7
TAP	58	48	1
TAP	58	72	0
TAP	58	96	1
TAP	58	144	2
TAP	58	192	2
TAP	58	192	4
BRK	58	240	7
BRK	58	288	7
XTP	59	0	3
XTP	59	0	4
TAP	59	48	6
TAP	59	72	7
STR	59	96	5
SI_	59	96	5	96	48	0
TAP	59	144	5
STR	59	192	1
SI_	59	192	1	96	48	4
TAP	59	240	1
TAP	59	288	7
TAP	59	336	7
XTP	60	0	3
XTP	60	0	4
TAP	60	48	1
TAP	60	72	0
STR	60	96	2
SI_	60	96	2	96	48	7
TAP	60	144	2
STR	60	192	6
SCL	60	192	6	96	48	3
BRK	60	288	0
TAP	61	0	1
TAP	61	24	0
TAP	61	48	1
TAP	61	72	0
BRK	61	96	2
TAP	61	192	6
TAP	61	216	7
TAP	61	240	6
TAP	61	264	7
BRK	61	288	5
TAP	62	0	1
TAP	62	0	4
XTP	62	48	0
TAP	62	96	3
TAP	62	96	6
XTP	62	144	7
TAP	62	192	1
TAP	62	192	4
XTP	62	240	0
XTP	62	264	7
XTP	62	288	0
XTP	62	336	0
STR	63	0	6
SI_	63	0	6	96	48	3
STR	63	0	7
SI_	63	0	7	96	48	2
TAP	63	96	6
TAP	63	96	7
STR	63	192	0
SI_	63	192	0	96	48	5
STR	63	192	1
SI_	63	192	1	96	48	4
TAP	63	288	0
TAP	63	288	1
STR	64	0	0
SI_	64	0	0	96	48	4
STR	64	0	7
SI_	64	0	7	96	48	3
STR	64	96	0
SCR	64	96	0	96	48	3
STR	64	96	7
SCL	64	96	7	96	48	4
BRK	64	192	0
BRK	64	192	7
XST	64	336	1
SLR	64	336	1	96	96	7
HLD	64	336	5	96
TAP	65	96	6
TAP	65	144	6
XTP	65	192	0
XTP	65	240	0
HLD	65	336	2	96
XST	65	336	6
SLL	65	336	6	96	96	0
TAP	66	96	1
TAP	66	144	1
XTP	66	192	7
TAP	66	288	2
TAP	66	288	5
XHO	66	336	2	96
XHO	66	336	5	96
TAP	67	96	3
TAP	67	120	4
TAP	67	144	3
TAP	67	192	2
TAP	67	192	6
TAP	67	240	2
STR	67	240	6
SCL	67	240	6	96	48	3
STR	67	336	0
SI_	67	336	0	96	48	4
TAP	68	48	7
TAP	68	96	7
XTP	68	192	3
XTP	68	192	5
TAP	68	288	0
TAP	68	288	7
HLD	68	336	1	96
HLD	68	336	6	96
XTP	69	96	1
XTP	69	96	6
TAP	69	120	5
TAP	69	144	4
TAP	69	168	3
XTP	69	192	0
TAP	69	216	1
TAP	69	240	2
TAP	69	264	3
XTP	69	288	7
TAP	69	312	6
TAP	69	336	5
TAP	69	360	4
XTP	70	0	1
TAP	70	24	2
TAP	70	48	3
TAP	70	72	4
XTP	70	96	0
TAP	70	120	7
TAP	70	144	6
TAP	70	168	5
XTP	70	192	1
XTP	70	192	4
TAP	70	288	2
TAP	70	288	7
BRK	70	336	2
BRK	70	336	7
HLD	71	48	4	48
HLD	71	48	6	48
HLD	71	120	4	48
HLD	71	120	5	48
HLD	71	192	2	48
HLD	71	192	3	48
XTP	71	264	1
XTP	71	264	3
TAP	71	336	0
TAP	71	336	7
XTP	72	0	0
XTP	72	0	7
TAP	72	24	1
TAP	72	48	2
TAP	72	72	3
XTP	72	96	6
TAP	72	120	5
TAP	72	144	4
TAP	72	168	3
BRK	72	192	0
TAP	72	288	1
TAP	72	288	3
STR	72	336	1
SI_	72	336	1	96	48	5
STR	72	336	3
SI_	72	336	3	96	48	5
TAP	73	192	6
TAP	73	240	6
TAP	73	240	7
STR	73	336	4
SI_	73	336	4	96	48	2
STR	73	336	6
SI_	73	336	6	96	48	2
TAP	74	192	1
TAP	74	240	0
TAP	74	240	1
HLD	74	336	2	96
TAP	74	336	5
HLD	75	48	5	48
HLD	75	96	4	48
HLD	75	144	3	48
STR	75	192	2
SCR	75	192	2	96	48	5
TAP	75	288	6
STR	75	336	6
SI_	75	336	6	96	48	2
TAP	76	48	1
STR	76	96	1
SCL	76	96	1	96	96	4
BRK	76	192	4
STR	77	0	7
SI_	77	0	7	96	48	5
STR	77	96	3
SI_	77	96	3	96	48	1
STR	77	192	6
SI_	77	192	6	96	48	4
STR	77	288	2
SI_	77	288	2	96	48	0
STR	78	0	5
SI_	78	0	5	96	48	3
STR	78	96	1
SI_	78	96	1	96	48	7
STR	78	192	6
SI_	78	192	6	96	48	2
TAP	78	288	0
HLD	79	0	0	96
HLD	79	0	4	96
TAP	79	144	0
TAP	79	144	4
TAP	79	160	1
TAP	79	160	5
TAP	79	176	2
TAP	79	176	6
BRK	79	192	3
BRK	79	192	7
HLD	80	0	3	96
HLD	80	0	7	96
TAP	80	144	3
TAP	80	144	7
TAP	80	160	2
TAP	80	160	6
TAP	80	176	1
TAP	80	176	5
BRK	80	192	0
BRK	80	192	4
TAP	81	0	5
TAP	81	0	7
TAP	81	64	4
TAP	81	64	6
TAP	81	128	3
TAP	81	128	5
TAP	81	192	2
TAP	81	192	4
TAP	81	256	1
TAP	81	256	3
TAP	81	320	0
TAP	81	320	2
TAP	82	0	0
TAP	82	0	7
TAP	82	64	0
TAP	82	64	7
TAP	82	80	1
TAP	82	80	6
TAP	82	104	2
TAP	82	104	5
TAP	82	128	3
TAP	82	128	4
BRK	82	192	1
BRK	82	192	6
THO	83	0	0	408	C	0	M1
TTP	84	24	0	B	0	M1
TTP	84	24	1	B	0	M1
TTP	84	24	7	B	0	M1
BST	85	0	1
SCR	85	0	1	96	48	4
BRK	85	0	6
TAP	85	72	0
TAP	85	96	1
TAP	85	144	5
STR	85	192	6
SCL	85	192	6	96	48	3
TAP	85	264	7
TAP	85	288	6
TAP	85	336	2
STR	86	0	1
SCR	86	0	1	96	48	4
TAP	86	72	0
TAP	86	96	1
TAP	86	144	5
BRK	86	192	6
BRK	86	192	7
TAP	86	288	4
STR	86	288	5
SI_	86	288	5	96	48	0
TAP	86	336	6
TAP	87	0	4
TAP	87	0	5
STR	87	96	2
SI_	87	96	2	96	48	7
TAP	87	96	3
TAP	87	144	1
TAP	87	192	2
TAP	87	192	3
TAP	87	288	6
TAP	87	336	5
TAP	88	0	3
TAP	88	0	5
TAP	88	48	1
TAP	88	72	0
TAP	88	96	1
TAP	88	144	2
TAP	88	192	2
TAP	88	192	4
BRK	88	240	7
BRK	88	288	7
STR	89	0	6
SI_	89	0	6	96	48	3
TAP	89	48	6
STR	89	96	2
SI_	89	96	2	96	48	7
TAP	89	144	2
STR	89	192	5
SI_	89	192	5	96	48	0
TAP	89	240	5
STR	89	288	1
SI_	89	288	1	96	48	4
TAP	89	336	1
STR	90	0	6
SCL	90	0	6	96	48	3
TAP	90	48	6
STR	90	96	3
SUR	90	96	3	96	48	7
XTP	90	192	0
XTP	90	288	1
XTP	90	288	6
TAP	91	0	5
TAP	91	24	4
TAP	91	48	5
TAP	91	72	4
BRK	91	96	7
TAP	91	192	2
TAP	91	216	3
TAP	91	240	2
TAP	91	264	3
BRK	91	288	0
BST	92	0	6
SCL	92	0	6	96	48	3
BST	92	48	0
SI_	92	48	0	96	48	4
BRK	92	96	6
BRK	92	144	0
BST	92	192	7
SF_	92	192	7	96	48	3
TTP	92	288	0	B	0	M1
TTP	92	288	0	C	1	M1
TTP	92	288	6	B	0	M1
TTP	92	288	7	B	0	M1
XTP	93	0	1
XTP	93	0	5
TAP	93	96	1
TAP	93	96	5
TAP	93	144	0
STR	93	192	1
SI_	93	192	1	96	48	5
TAP	93	192	3
TAP	93	288	5
TAP	93	336	6
STR	94	0	7
SI_	94	0	7	96	48	3
TAP	94	96	3
TAP	94	144	2
TAP	94	192	1
TAP	94	192	4
STR	94	288	7
SCL	94	288	7	96	96	4
TAP	95	0	4
STR	95	96	3
SCL	95	96	3	96	96	0
TAP	95	192	0
TAP	95	288	7
TAP	96	0	2
TAP	96	0	4
TAP	96	48	6
TAP	96	72	7
TAP	96	96	6
TAP	96	144	5
TAP	96	192	3
TAP	96	192	5
BRK	96	240	0
BRK	96	288	0
XTP	97	0	3
XTP	97	0	4
TAP	97	48	1
TAP	97	72	0
STR	97	96	2
SCL	97	96	2	96	48	7
TAP	97	144	2
STR	97	192	6
SCL	97	192	6	96	48	3
TAP	97	240	6
TAP	97	288	0
TAP	97	336	0
XTP	98	0	3
XTP	98	0	4
TAP	98	48	6
TAP	98	72	7
STR	98	96	5
SCR	98	96	5	96	48	0
TAP	98	144	5
STR	98	192	1
SI_	98	192	1	96	48	5
BRK	98	288	7
TAP	99	0	6
TAP	99	24	7
TAP	99	48	6
TAP	99	72	7
BRK	99	96	4
TAP	99	192	1
TAP	99	216	0
TAP	99	240	1
TAP	99	264	0
BRK	99	288	3
TAP	100	0	2
TAP	100	0	4
XTP	100	48	7
TAP	100	96	3
TAP	100	96	5
XTP	100	144	0
TAP	100	192	2
TAP	100	192	4
XTP	100	240	7
XTP	100	264	0
XTP	100	288	7
XTP	100	336	6
XST	101	0	4
SI_	101	0	4	96	48	0
XST	101	0	6
SI_	101	0	6	96	48	4
XTP	101	96	4
XTP	101	96	6
XST	101	192	1
SI_	101	192	1	96	48	3
XST	101	192	3
SI_	101	192	3	96	48	7
XTP	101	288	1
XTP	101	288	3
TAP	102	0	4
STR	102	0	6
SCR	102	0	6	96	48	1
STR	102	96	1
SCL	102	96	1	96	48	6
TAP	102	192	6
XTP	102	288	3
XTP	102	288	5
STR	103	0	0
SXL	103	0	0	96	192	1
SXR	103	0	0	96	192	7
TTP	104	0	1	B	0	M1
TTP	104	0	2	B	0	M1
TTP	104	0	6	B	0	M1
TTP	104	0	7	B	0	M1
TTP	104	96	4	B	0	M1
TTP	104	96	4	E	0	M1
TTP	104	96	5	E	0	M1
HLD	104	192	1	672
HLD	104	192	5	576
STR	106	192	0
SUR	106	192	0	96	48	4
STR	106	192	6
SI_	106	192	6	96	48	1
BRK	106	288	6
TTP	107	0	0	C	1	M1
TTP	107	0	1	B	0	M1
TTP	107	0	1	E	0	M1
TTP	107	0	2	B	0	M1
TTP	107	0	3	B	0	M1
TTP	107	0	4	B	0	M1
TTP	107	0	5	B	0	M1
TTP	107	0	6	B	0	M1
TTP	107	0	7	E	0	M1

T_REC_TAP	498
T_REC_BRK	52
T_REC_XTP	59
T_REC_HLD	36
T_REC_XHO	2
T_REC_STR	81
T_REC_BST	9
T_REC_XST	8
T_REC_TTP	48
T_REC_THO	3
T_REC_SLD	99
T_REC_ALL	895
T_NUM_TAP	694
T_NUM_BRK	61
T_NUM_HLD	41
T_NUM_SLD	99
T_NUM_ALL	895
T_JUDGE_TAP	755
T_JUDGE_HLD	158
T_JUDGE_SLD	99
T_JUDGE_ALL	1012
TTM_EACHPAIRS	200
TTM_SCR_TAP	347000
TTM_SCR_BRK	158600
TTM_SCR_HLD	41000
TTM_SCR_SLD	148500
TTM_SCR_ALL	695100
TTM_SCR_S	668350
TTM_SCR_SS	689000
TTM_RAT_ACV	10088

