VERSION	0.00.00	1.03.00
FES_MODE	0
BPM_DEF	190.000	190.000	190.000	190.000
MET_DEF	4	4
RESOLUTION	384
CLK_DEF	384
COMPATIBLE_CODE	MA2

BPM	0	0	190.000
MET	0	0	4	4

TAP	1	0	3
TAP	1	0	4
TAP	1	96	3
TAP	1	96	4
TAP	1	192	2
TAP	1	240	2
TAP	1	288	2
TAP	2	0	4
TAP	2	48	4
TAP	2	96	4
TAP	2	144	4
TAP	2	192	4
TAP	2	288	2
TAP	2	288	5
TAP	3	0	3
TAP	3	0	4
TAP	3	96	3
TAP	3	96	4
TAP	3	192	5
TAP	3	240	5
TAP	3	288	5
TAP	4	0	3
TAP	4	48	3
TAP	4	96	3
TAP	4	144	3
TAP	4	192	3
XTP	4	288	2
XTP	4	288	5
TAP	5	0	3
TAP	5	0	4
TAP	5	96	3
TAP	5	96	4
TAP	5	192	2
TAP	5	240	2
TAP	5	288	2
TAP	6	0	4
TAP	6	48	4
TAP	6	96	4
TAP	6	144	4
TAP	6	192	4
TAP	6	288	1
TAP	6	288	6
STR	7	0	3
SXR	7	0	3	96	336	0
STR	7	0	4
SXL	7	0	4	96	336	7
BRK	8	192	1
BRK	8	192	6
STR	9	0	0
SXL	9	0	0	96	144	1
STR	10	0	6
SXR	10	0	6	96	144	5
STR	11	0	1
SXL	11	0	1	96	144	2
TAP	12	0	0
TAP	12	0	7
TAP	12	96	0
TAP	12	96	7
XTP	12	192	1
XTP	12	192	6
TAP	13	0	7
TAP	13	48	0
TAP	13	96	6
TAP	13	144	0
TAP	13	192	5
TAP	13	288	4
TAP	13	288	6
TAP	14	0	3
TAP	14	48	4
TAP	14	96	2
TAP	14	144	4
TAP	14	192	1
TAP	14	288	0
TAP	14	288	1
TAP	15	0	7
TAP	15	48	0
TAP	15	96	7
TAP	15	144	1
TAP	15	192	7
TAP	15	288	2
TAP	15	288	3
TAP	16	0	4
TAP	16	0	5
STR	16	96	6
SI_	16	96	6	96	96	3
STR	16	96	7
SI_	16	96	7	96	96	2
TAP	17	0	7
TAP	17	48	0
TAP	17	96	6
TAP	17	144	0
TAP	17	192	5
TAP	17	288	4
TAP	17	288	6
TAP	18	0	3
TAP	18	48	4
TAP	18	96	2
TAP	18	144	4
TAP	18	192	1
TAP	18	288	0
TAP	18	288	1
STR	19	0	7
SCL	19	0	7	96	192	4
STR	20	0	3
SCL	20	0	3	96	192	0
STR	21	0	7
SI_	21	0	7	96	192	3
TAP	22	0	0
TAP	22	96	0
TAP	22	96	7
BRK	22	192	1
BRK	22	192	6
HLD	23	0	5	192
TTP	23	96	4	E	0	M1
TTP	23	192	3	E	0	M1
TTP	23	288	0	C	0	M1
HLD	24	0	1	192
TTP	24	96	0	E	0	M1
TTP	24	192	7	E	0	M1
TTP	24	288	0	C	0	M1
HLD	25	0	5	192
TTP	25	96	4	E	0	M1
TTP	25	192	3	E	0	M1
TTP	25	288	0	C	0	M1
TTP	26	0	0	E	0	M1
TTP	26	96	4	E	0	M1
TTP	26	192	0	C	0	M1
TTP	26	192	2	B	0	M1
TTP	26	192	5	B	0	M1
HLD	27	0	6	192
TAP	27	0	7
TAP	27	192	7
TAP	27	288	0
TAP	28	0	0
HLD	28	0	1	192
TAP	28	192	0
TAP	28	288	7
TAP	29	0	0
TAP	29	0	6
TAP	29	96	2
TAP	29	96	3
TAP	29	192	1
TAP	29	192	6
TAP	29	336	1
TAP	29	336	7
TAP	30	48	4
TAP	30	48	5
TAP	30	144	1
TAP	30	144	6
TAP	30	192	1
TAP	30	192	6
HLD	31	0	7	192
TTP	31	96	2	E	0	M1
TTP	31	192	3	E	0	M1
TTP	31	288	0	C	0	M1
HLD	32	0	0	192
TTP	32	96	6	E	0	M1
TTP	32	192	5	E	0	M1
TTP	32	288	0	C	0	M1
HLD	33	0	7	192
TTP	33	96	2	E	0	M1
TTP	33	192	3	E	0	M1
TTP	33	288	0	C	0	M1
TTP	34	0	0	E	0	M1
TTP	34	96	4	E	0	M1
TTP	34	192	0	C	0	M1
TTP	34	192	2	B	0	M1
TTP	34	192	5	B	0	M1
TAP	35	0	0
HLD	35	0	1	192
TAP	35	192	0
TAP	35	288	7
HLD	36	0	6	192
TAP	36	0	7
TAP	36	192	7
TAP	36	288	0
TAP	37	0	0
TAP	37	0	1
TAP	37	96	0
TAP	37	96	1
TAP	37	192	6
TAP	37	192	7
TAP	37	288	6
TAP	37	288	7
TAP	38	0	0
TAP	38	0	7
TAP	38	96	3
TAP	38	96	4
BRK	38	192	1
BRK	38	192	6
HLD	39	0	5	576
TAP	39	96	4
TAP	39	192	4
TAP	39	288	4
TAP	40	0	4
TAP	40	96	4
TAP	40	192	4
XTP	40	288	1
XTP	40	288	6
TAP	41	0	0
TAP	41	0	7
TAP	41	96	0
TAP	41	96	7
TAP	41	192	6
TAP	41	192	7
TAP	41	240	6
TAP	41	240	7
TAP	41	288	6
TAP	41	288	7
TAP	42	0	0
TAP	42	0	1
TAP	42	48	0
TAP	42	48	1
TAP	42	96	0
TAP	42	96	1
TAP	42	144	0
TAP	42	144	1
TAP	42	192	0
TAP	42	192	1
HLD	43	0	2	576
TAP	43	96	3
TAP	43	192	3
TAP	43	288	3
TAP	44	0	3
TAP	44	96	3
TAP	44	192	3
XTP	44	288	1
XTP	44	288	6
STR	45	0	4
SCR	45	0	4	96	240	3
TTP	46	0	0	C	1	M1
TAP	46	240	0
TAP	46	240	7
TAP	46	288	0
TAP	46	288	7
TAP	46	336	0
TAP	46	336	7
TAP	47	0	1
TAP	47	0	6
TAP	47	96	2
TAP	47	96	3
TAP	47	192	0
TAP	47	192	6
TAP	47	288	4
TAP	47	288	5
TAP	48	0	1
TAP	48	0	7
TAP	48	96	2
TAP	48	96	3
TAP	48	144	2
TAP	48	144	3
XTP	48	192	1
XTP	48	192	4
XTP	48	288	2
XTP	48	288	6
TAP	49	0	4
HLD	49	0	5	96
TAP	49	96	0
HLD	49	192	2	96
TAP	49	192	3
TAP	49	288	7
TAP	50	0	4
TAP	50	0	6
TAP	50	96	1
TAP	50	96	3
TAP	50	192	0
TAP	50	192	7
TAP	50	240	0
TAP	50	240	7
BRK	50	288	1
BRK	50	288	6
STR	51	0	7
SI_	51	0	7	96	48	3
STR	51	192	1
SI_	51	192	1	96	48	5
TAP	52	0	7
TAP	52	96	2
TAP	52	96	3
XTP	52	192	1
XTP	52	192	5
STR	53	0	6
SCL	53	0	6	96	48	3
STR	53	192	2
SCL	53	192	2	96	48	7
TAP	54	0	5
TAP	54	96	4
TAP	54	96	6
XTP	54	192	1
XTP	54	192	5
BRK	54	288	7
TAP	55	0	1
TAP	55	0	6
TAP	55	96	4
TAP	55	96	5
TAP	55	192	1
TAP	55	192	7
TAP	55	288	2
TAP	55	288	3
TAP	56	0	0
TAP	56	0	6
TAP	56	96	4
TAP	56	96	5
TAP	56	144	4
TAP	56	144	5
TAP	56	192	3
TAP	56	192	6
XTP	56	288	1
XTP	56	288	5
HLD	57	0	2	96
TAP	57	0	3
TAP	57	96	7
TAP	57	192	4
HLD	57	192	5	96
TAP	57	288	0
TAP	58	0	1
TAP	58	0	3
TAP	58	96	4
TAP	58	96	6
TAP	58	192	0
TAP	58	192	7
TAP	58	240	0
TAP	58	240	7
BRK	58	288	1
BRK	58	288	6
STR	59	0	0
SI_	59	0	0	96	48	4
STR	59	192	6
SI_	59	192	6	96	48	2
TAP	60	0	0
TAP	60	96	4
TAP	60	96	5
XTP	60	192	2
XTP	60	192	6
STR	61	0	6
SI_	61	0	6	96	48	4
STR	61	0	7
SI_	61	0	7	96	48	3
STR	61	192	0
SI_	61	192	0	96	48	4
STR	61	192	1
SI_	61	192	1	96	48	3
TAP	62	0	6
TAP	62	0	7
TAP	62	96	2
TAP	62	96	3
BRK	62	192	2
BRK	62	192	6
TAP	63	0	6
TAP	63	0	7
TAP	63	96	4
TAP	63	96	5
TAP	63	192	2
TAP	63	192	3
TAP	63	288	0
TAP	63	288	1
TAP	64	0	3
TAP	64	0	4
TAP	64	96	0
TAP	64	96	7
XHO	64	192	1	144
XHO	64	192	6	144
TAP	65	48	2
TAP	65	96	3
TAP	65	144	1
TAP	65	192	3
TAP	65	240	2
TAP	65	336	0
TAP	65	336	7
TAP	66	48	6
TAP	66	96	7
TAP	66	144	6
TAP	66	192	0
TAP	66	192	5
TAP	66	336	3
TAP	66	336	4
TAP	67	48	5
TAP	67	96	4
TAP	67	144	6
TAP	67	192	4
TAP	67	240	5
TAP	67	336	0
TAP	67	336	7
TAP	68	48	1
TAP	68	96	0
TAP	68	144	1
TAP	68	192	2
TAP	68	192	7
TAP	68	336	3
TAP	68	336	4
TAP	69	48	2
TAP	69	96	3
TAP	69	144	1
TAP	69	192	3
TAP	69	288	0
TAP	69	288	1
TAP	70	0	5
TAP	70	48	4
TAP	70	96	6
TAP	70	144	4
TAP	70	192	5
TAP	70	288	6
TAP	70	288	7
TAP	71	0	1
TAP	71	48	0
TAP	71	96	1
TAP	71	144	0
TAP	71	192	2
TAP	71	240	7
TAP	71	288	2
TAP	71	336	7
TAP	72	0	3
TAP	72	48	4
TAP	72	96	3
XTP	72	192	1
XTP	72	192	6
XST	72	336	2
SCR	72	336	2	96	192	5
XST	73	336	6
SCR	73	336	6	96	192	1
XST	74	336	2
SUL	74	336	2	96	192	5
XST	75	336	7
SF_	75	336	7	96	192	3
STR	77	0	3
SI_	77	0	3	96	96	1
STR	77	192	4
SI_	77	192	4	96	96	6
STR	78	0	2
SI_	78	0	2	96	96	0
STR	78	192	5
SI_	78	192	5	96	96	7
TAP	79	0	0
STR	79	96	0
SI_	79	96	0	96	96	3
SI_	79	96	0	96	96	5
TAP	80	0	7
STR	80	96	7
SI_	80	96	7	96	96	2
SI_	80	96	7	96	96	4
STR	81	0	0
SSL	81	0	0	96	192	4
STR	82	0	7
SUR	82	0	7	96	192	0
THO	84	0	0	144	C	0	M1
TTP	84	0	1	B	0	M1
TTP	84	0	2	B	0	M1
TTP	84	0	5	B	0	M1
TTP	84	0	6	B	0	M1
TAP	85	0	0
TAP	85	0	7
TAP	85	96	1
TAP	85	96	3
TAP	85	192	0
TAP	85	192	6
TAP	85	288	4
TAP	85	288	5
TAP	86	0	1
TAP	86	0	7
TAP	86	96	2
TAP	86	96	3
TAP	86	144	2
TAP	86	144	3
TAP	86	192	1
TAP	86	192	4
TAP	86	288	2
TAP	86	288	6
TAP	87	0	4
HLD	87	0	5	96
TAP	87	96	7
HLD	87	192	2	96
TAP	87	192	3
TAP	87	288	0
TAP	88	0	4
TAP	88	0	6
TAP	88	96	1
TAP	88	96	3
TAP	88	192	0
TAP	88	192	7
TAP	88	240	0
TAP	88	240	7
BRK	88	288	1
BRK	88	288	6
STR	89	0	7
SUL	89	0	7	96	48	3
STR	89	192	1
SUR	89	192	1	96	48	5
TAP	90	0	7
TAP	90	96	2
TAP	90	96	3
TAP	90	144	2
TAP	90	144	3
XTP	90	192	1
XTP	90	192	4
TAP	90	288	2
TAP	90	288	6
STR	91	0	1
SCR	91	0	1	96	48	4
STR	91	192	5
SCR	91	192	5	96	48	0
TAP	92	0	2
TAP	92	96	1
TAP	92	96	3
XTP	92	192	2
XTP	92	192	6
BRK	92	288	0
TAP	93	0	1
TAP	93	0	6
TAP	93	96	4
TAP	93	96	6
TAP	93	192	1
TAP	93	192	7
TAP	93	288	2
TAP	93	288	3
TAP	94	0	0
TAP	94	0	6
TAP	94	96	4
TAP	94	96	5
TAP	94	144	4
TAP	94	144	5
TAP	94	192	3
TAP	94	192	6
TAP	94	288	1
TAP	94	288	5
HLD	95	0	2	96
TAP	95	0	3
TAP	95	96	0
TAP	95	192	4
HLD	95	192	5	96
TAP	95	288	7
TAP	96	0	1
TAP	96	0	3
TAP	96	96	4
TAP	96	96	6
TAP	96	192	0
TAP	96	192	7
TAP	96	240	0
TAP	96	240	7
BRK	96	288	1
BRK	96	288	6
STR	97	0	0
SUR	97	0	0	96	48	4
STR	97	192	6
SUL	97	192	6	96	48	2
TAP	98	0	0
TAP	98	96	4
TAP	98	96	5
TAP	98	192	2
TAP	98	192	3
TAP	98	240	2
TAP	98	240	3
XTP	98	288	1
XTP	98	288	4
STR	99	0	0
SI_	99	0	0	96	48	4
STR	99	0	1
SI_	99	0	1	96	48	3
STR	99	192	6
SI_	99	192	6	96	48	4
STR	99	192	7
SI_	99	192	7	96	48	3
TAP	100	0	0
TAP	100	0	1
TAP	100	96	4
TAP	100	96	5
BRK	100	192	1
BRK	100	192	5
TAP	101	0	6
TAP	101	0	7
TAP	101	96	4
TAP	101	96	5
TAP	101	192	2
TAP	101	192	3
TAP	101	288	0
TAP	101	288	1
STR	102	0	6
SUR	102	0	6	96	144	3
STR	102	0	7
SCR	102	0	7	96	144	2
TAP	103	0	0
TAP	103	0	1
TAP	103	96	2
TAP	103	96	3
TAP	103	192	4
TAP	103	192	5
TAP	103	288	6
TAP	103	288	7
TAP	104	0	0
TAP	104	0	1
TAP	104	96	3
TAP	104	96	4
BST	104	192	1
SCL	104	192	1	96	384	3
BRK	104	192	6
TTP	106	288	0	C	1	M1
TTP	106	288	2	B	0	M1
TTP	106	288	2	E	0	M1
TTP	106	288	5	B	0	M1
TTP	106	288	6	E	0	M1

T_REC_TAP	394
T_REC_BRK	21
T_REC_XTP	28
T_REC_HLD	20
T_REC_XHO	2
T_REC_STR	41
T_REC_BST	1
T_REC_XST	4
T_REC_TTP	38
T_REC_THO	1
T_REC_SLD	48
T_REC_ALL	598
T_NUM_TAP	505
T_NUM_BRK	22
T_NUM_HLD	23
T_NUM_SLD	48
T_NUM_ALL	598
T_JUDGE_TAP	527
T_JUDGE_HLD	89
T_JUDGE_SLD	48
T_JUDGE_ALL	664
TTM_EACHPAIRS	174
TTM_SCR_TAP	252500
TTM_SCR_BRK	57200
TTM_SCR_HLD	23000
TTM_SCR_SLD	72000
TTM_SCR_ALL	404700
TTM_SCR_S	390450
TTM_SCR_SS	402500
TTM_RAT_ACV	10054

