VERSION	0.00.00	1.03.00
FES_MODE	0
BPM_DEF	190.000	190.000	190.000	190.000
MET_DEF	4	4
RESOLUTION	384
CLK_DEF	384
COMPATIBLE_CODE	MA2

BPM	0	0	190.000
MET	0	0	4	4

XHO	1	0	5	384
HLD	2	0	4	384
HLD	3	0	3	384
TAP	4	0	2
TAP	5	0	2
TAP	5	96	2
TAP	5	192	2
TAP	6	0	1
TAP	6	96	1
TAP	6	192	1
TAP	7	0	0
TAP	7	96	0
TAP	7	192	7
TAP	7	288	7
XTP	8	0	0
XTP	8	0	7
XTP	8	96	0
XTP	8	96	7
BRK	8	192	1
BRK	8	192	6
STR	9	0	0
SCR	9	0	0	96	192	3
STR	10	0	4
SCR	10	0	4	96	192	7
STR	11	0	0
SI_	11	0	0	96	192	3
TAP	12	0	4
TAP	12	96	3
TAP	12	96	4
XTP	12	192	2
XTP	12	192	5
TAP	13	0	1
TAP	13	96	1
TAP	13	192	0
TAP	13	192	1
TAP	14	0	6
TAP	14	96	6
TAP	14	192	6
TAP	14	192	7
TAP	15	0	1
TAP	15	96	1
TAP	15	192	0
TAP	15	288	0
TAP	16	0	7
TAP	16	96	7
XTP	16	192	0
XTP	16	192	6
TAP	17	0	6
TAP	17	96	6
TAP	17	192	6
TAP	17	192	7
TAP	18	0	0
TAP	18	96	0
TAP	18	96	7
XTP	18	192	1
XTP	18	192	6
STR	19	0	2
SCL	19	0	2	96	384	5
STR	21	0	4
SI_	21	0	4	96	192	7
TAP	22	0	0
TAP	22	96	0
BRK	22	192	1
BRK	22	192	6
HLD	23	0	5	192
TAP	23	192	4
TAP	23	288	3
HLD	24	0	2	192
TAP	24	192	3
TAP	24	288	4
HLD	25	0	5	192
TAP	25	192	4
TAP	25	288	3
TAP	26	0	2
TAP	26	96	2
XTP	26	192	2
XTP	26	192	3
HLD	27	0	2	192
TAP	27	192	3
TAP	27	288	3
HLD	28	0	4	192
TAP	28	192	3
TAP	28	288	3
TAP	29	0	2
TAP	29	96	2
XTP	29	192	1
XTP	29	192	3
TAP	30	0	5
TAP	30	96	5
XTP	30	192	4
XTP	30	192	6
HLD	31	0	2	192
TAP	31	192	3
TAP	31	288	4
HLD	32	0	5	192
TAP	32	192	4
TAP	32	288	3
HLD	33	0	2	192
TAP	33	192	3
TAP	33	288	4
TAP	34	0	5
TAP	34	96	5
XTP	34	192	4
XTP	34	192	6
HLD	35	0	5	192
TAP	35	192	4
TAP	35	288	4
HLD	36	0	3	192
TAP	36	192	4
TAP	36	288	4
TAP	37	0	5
TAP	37	96	5
TAP	37	192	6
TAP	37	288	6
TAP	38	0	0
TAP	38	0	7
TAP	38	96	0
TAP	38	96	7
BRK	38	192	1
BRK	38	192	6
TTP	39	0	6	E	0	L1
TTP	39	192	5	B	0	L1
TTP	40	0	4	B	0	L1
TTP	41	0	2	E	0	L1
TTP	41	192	2	B	0	L1
TTP	42	0	3	B	0	L1
TTP	43	0	6	B	0	L1
TTP	43	192	0	C	0	L1
TTP	44	0	2	B	0	L1
TTP	44	192	1	B	0	L1
THO	45	0	0	384	C	1	L1
TAP	47	0	1
TAP	47	96	0
TAP	47	96	1
TAP	47	192	1
TAP	47	288	0
TAP	47	288	1
TAP	48	0	6
TAP	48	96	6
TAP	48	96	7
XTP	48	192	0
XTP	48	192	5
TAP	49	0	5
TAP	49	96	4
TAP	49	96	5
TAP	49	192	2
TAP	49	288	2
TAP	49	288	3
TAP	50	0	5
TAP	50	96	4
TAP	50	96	5
XTP	50	192	3
XTP	50	192	6
TAP	51	0	6
TAP	51	96	6
TAP	51	96	7
TAP	51	192	6
TAP	51	288	6
TAP	51	288	7
TAP	52	0	1
TAP	52	96	0
TAP	52	96	1
XTP	52	192	2
XTP	52	192	7
STR	53	0	0
SI_	53	0	0	96	192	3
STR	53	0	7
SI_	53	0	7	96	192	4
XTP	54	0	3
XTP	54	0	4
XTP	54	96	2
XTP	54	96	5
BRK	54	192	1
BRK	54	192	6
TAP	55	0	6
TAP	55	96	6
TAP	55	96	7
TAP	55	192	6
TAP	55	288	6
TAP	55	288	7
TAP	56	0	1
TAP	56	96	0
TAP	56	96	1
XTP	56	192	2
XTP	56	192	7
TAP	57	0	2
TAP	57	96	2
TAP	57	96	3
TAP	57	192	5
TAP	57	288	4
TAP	57	288	5
TAP	58	0	2
TAP	58	96	2
TAP	58	96	3
XTP	58	192	1
XTP	58	192	4
TAP	59	0	1
TAP	59	96	0
TAP	59	96	1
TAP	59	192	1
TAP	59	288	0
TAP	59	288	1
TAP	60	0	6
TAP	60	96	6
TAP	60	96	7
XTP	60	192	0
XTP	60	192	5
STR	61	0	0
SCR	61	0	0	96	192	3
STR	61	0	7
SCL	61	0	7	96	192	4
XTP	62	0	3
XTP	62	0	4
XTP	62	96	2
XTP	62	96	5
BRK	62	192	1
BRK	62	192	6
TAP	63	0	1
TAP	63	96	0
TAP	63	96	1
TAP	63	192	7
TAP	63	288	7
BRK	64	0	1
BRK	64	0	6
XHO	64	336	0	144
TAP	65	96	7
TAP	65	192	6
TAP	65	288	5
XTP	66	0	4
XTP	66	0	6
XHO	66	336	7	144
TAP	67	96	0
TAP	67	192	1
TAP	67	288	2
XTP	68	0	1
XTP	68	0	3
XHO	68	336	0	144
TAP	69	96	7
TAP	69	192	6
TAP	69	288	5
TAP	70	0	4
TAP	70	96	3
TAP	70	192	2
TAP	70	288	1
TAP	71	0	0
TAP	71	96	0
TAP	71	192	7
TAP	71	288	0
TAP	71	288	7
BRK	72	0	1
BRK	72	0	6
XST	72	336	5
SI_	72	336	5	96	192	0
XST	73	336	1
SI_	73	336	1	96	192	4
XST	74	336	5
SCR	74	336	5	96	192	0
XTP	76	0	1
XTP	76	96	1
XTP	76	192	1
HLD	77	0	2	192
HLD	77	192	3	192
HLD	78	0	4	192
XTP	78	192	5
HLD	79	0	6	192
HLD	79	0	7	192
HLD	80	0	0	192
HLD	80	0	1	192
STR	81	0	0
SXL	81	0	0	96	576	3
STR	81	0	7
SXR	81	0	7	96	576	4
TTP	84	24	0	C	0	L1
TTP	84	24	2	B	0	L1
TTP	84	24	5	B	0	L1
TAP	85	0	6
TAP	85	96	6
TAP	85	96	7
TAP	85	192	1
TAP	85	288	0
TAP	85	288	1
TAP	86	0	6
TAP	86	96	6
TAP	86	96	7
XTP	86	192	0
XTP	86	192	5
HLD	87	0	5	96
TAP	87	96	4
HLD	87	192	2	96
TAP	87	288	3
HLD	88	0	5	96
TAP	88	96	4
XTP	88	192	3
XTP	88	192	6
TAP	89	0	1
TAP	89	96	0
TAP	89	96	1
TAP	89	192	6
TAP	89	288	6
TAP	89	288	7
TAP	90	0	1
TAP	90	96	0
TAP	90	96	1
XTP	90	192	2
XTP	90	192	7
STR	91	0	0
SI_	91	0	0	96	192	3
STR	91	0	7
SI_	91	0	7	96	192	4
XTP	92	0	3
XTP	92	0	4
XTP	92	96	2
XTP	92	96	5
BRK	92	192	1
BRK	92	192	6
TAP	93	0	1
TAP	93	96	0
TAP	93	96	1
TAP	93	192	6
TAP	93	288	6
TAP	93	288	7
TAP	94	0	5
TAP	94	96	4
TAP	94	96	5
XTP	94	192	3
XTP	94	192	6
HLD	95	0	2	96
TAP	95	96	3
HLD	95	192	5	96
TAP	95	288	4
HLD	96	0	3	96
TAP	96	96	4
XTP	96	192	2
XTP	96	192	5
TAP	97	0	6
TAP	97	96	6
TAP	97	96	7
TAP	97	192	1
TAP	97	288	0
TAP	97	288	1
TAP	98	0	2
TAP	98	96	2
TAP	98	96	3
XTP	98	192	1
XTP	98	192	4
STR	99	0	3
SCL	99	0	3	96	192	0
STR	99	0	4
SCR	99	0	4	96	192	7
XTP	100	0	0
XTP	100	0	7
XTP	100	96	1
XTP	100	96	6
BRK	100	192	2
BRK	100	192	5
TAP	101	0	3
TAP	101	96	2
TAP	101	192	1
TAP	101	288	0
TAP	102	0	7
TAP	102	96	7
XTP	102	192	0
XTP	102	192	6
TAP	103	0	1
TAP	103	96	2
TAP	103	192	3
TAP	103	288	4
XTP	104	0	3
XTP	104	0	4
XTP	104	96	2
XTP	104	96	5
BST	104	192	1
SCL	104	192	1	96	480	3
BRK	104	192	6
TTP	106	288	0	C	1	L1

T_REC_TAP	202
T_REC_BRK	19
T_REC_XTP	72
T_REC_HLD	25
T_REC_XHO	4
T_REC_STR	15
T_REC_BST	1
T_REC_XST	3
T_REC_TTP	14
T_REC_THO	1
T_REC_SLD	19
T_REC_ALL	375
T_NUM_TAP	306
T_NUM_BRK	20
T_NUM_HLD	30
T_NUM_SLD	19
T_NUM_ALL	375
T_JUDGE_TAP	326
T_JUDGE_HLD	121
T_JUDGE_SLD	19
T_JUDGE_ALL	466
TTM_EACHPAIRS	90
TTM_SCR_TAP	153000
TTM_SCR_BRK	52000
TTM_SCR_HLD	30000
TTM_SCR_SLD	28500
TTM_SCR_ALL	263500
TTM_SCR_S	253700
TTM_SCR_SS	261500
TTM_RAT_ACV	10076

