VERSION	0.00.00	1.03.00
FES_MODE	0
BPM_DEF	190.000	190.000	190.000	190.000
MET_DEF	4	4
RESOLUTION	384
CLK_DEF	384
COMPATIBLE_CODE	MA2

BPM	0	0	190.000
MET	0	0	4	4

HLD	5	0	0	384
HLD	5	0	7	384
XTP	7	0	0
XTP	7	0	7
TAP	8	0	0
TAP	8	0	7
TAP	8	192	0
TAP	8	192	7
STR	9	0	0
SI_	9	0	0	96	288	3
STR	11	0	7
SI_	11	0	7	96	288	4
TAP	13	0	3
TAP	14	0	2
TAP	15	0	1
TAP	16	0	0
TAP	16	0	7
TAP	16	192	0
TAP	16	192	7
TAP	17	0	7
TAP	18	0	6
HLD	19	0	5	384
HLD	21	0	5	384
TAP	23	0	4
TAP	23	192	4
TAP	24	0	4
TAP	25	0	3
TAP	25	192	3
TAP	26	0	3
HLD	27	0	2	384
TTP	29	0	2	B	0	L1
TTP	29	0	3	B	0	L1
TTP	30	0	4	B	0	L1
TTP	30	0	5	B	0	L1
TAP	31	0	3
TAP	31	192	3
TAP	32	0	3
TAP	33	0	4
TAP	33	192	4
TAP	34	0	4
HLD	35	0	5	384
TAP	37	0	6
TAP	37	192	6
TAP	38	0	0
TAP	38	0	7
TAP	38	96	0
TAP	38	96	7
BRK	38	192	0
BRK	38	192	7
HLD	39	0	0	192
TAP	40	0	0
TAP	40	96	0
TAP	40	192	0
HLD	43	0	7	192
TAP	44	0	7
TAP	44	96	7
TAP	44	192	7
THO	45	0	0	384	C	1	L1
TAP	47	0	0
TAP	47	192	0
TAP	48	0	1
TAP	48	96	1
TAP	48	192	1
TAP	49	0	2
TAP	49	192	2
TAP	50	0	3
TAP	50	96	4
TAP	50	192	3
TAP	51	0	4
TAP	51	192	4
TAP	52	0	5
TAP	52	96	5
TAP	52	192	5
HLD	53	0	6	192
TAP	54	0	7
TAP	54	96	7
XTP	54	192	0
XTP	54	192	7
TAP	55	0	7
TAP	55	192	7
TAP	56	0	6
TAP	56	96	6
TAP	56	192	6
TAP	57	0	5
TAP	57	192	5
TAP	58	0	4
TAP	58	96	3
TAP	58	192	4
TAP	59	0	3
TAP	59	192	3
TAP	60	0	2
TAP	60	96	2
TAP	60	192	2
TAP	61	0	1
TAP	61	192	1
TAP	62	0	0
TAP	62	96	0
TAP	62	192	0
TAP	62	192	7
HLD	63	0	0	192
HLD	63	0	7	192
TAP	64	0	0
TAP	64	0	7
TAP	64	96	0
TAP	64	96	7
BRK	64	192	0
BRK	64	192	7
TAP	65	0	1
TAP	65	192	1
TAP	66	0	2
TAP	66	192	2
TAP	67	0	3
TAP	67	192	3
TAP	68	0	4
TAP	68	96	3
TAP	68	192	4
TAP	69	0	5
TAP	69	192	5
TAP	70	0	6
TAP	70	192	6
TAP	71	0	7
TAP	71	192	7
TAP	72	0	0
TAP	72	96	0
TAP	72	192	0
TAP	72	192	7
STR	73	0	1
SI_	73	0	1	96	288	6
STR	75	0	5
SI_	75	0	5	96	288	2
TAP	77	0	1
TAP	77	192	1
TAP	78	0	0
TAP	78	0	7
TAP	78	192	0
TAP	78	192	7
XHO	79	0	0	192
XHO	79	0	7	192
XHO	80	0	0	192
XHO	80	0	7	192
THO	81	0	0	384	C	1	L1
TTP	84	0	0	C	0	L1
TTP	84	0	0	B	0	L1
TTP	84	0	1	B	0	L1
TTP	84	0	6	B	0	L1
TTP	84	0	7	B	0	L1
XTP	85	0	0
TAP	85	192	0
TAP	86	0	7
TAP	86	96	7
TAP	86	192	0
TAP	86	192	7
TAP	87	0	6
TAP	87	192	6
TAP	88	0	5
TAP	88	96	5
XTP	88	192	4
XTP	88	192	5
TAP	89	0	3
TAP	89	192	3
TAP	90	0	2
TAP	90	96	2
TAP	90	192	2
TAP	90	192	3
HLD	91	0	1	192
TAP	92	0	0
TAP	92	0	7
TAP	92	96	0
TAP	92	96	7
XTP	92	192	0
XTP	92	192	7
TAP	93	0	7
TAP	93	192	7
TAP	94	0	0
TAP	94	96	0
TAP	94	192	0
TAP	94	192	7
TAP	95	0	1
TAP	95	192	1
TAP	96	0	2
TAP	96	96	2
XTP	96	192	2
XTP	96	192	3
TAP	97	0	4
TAP	97	192	4
TAP	98	0	5
TAP	98	96	5
TAP	98	192	4
TAP	98	192	5
HLD	99	0	6	192
TAP	100	0	0
TAP	100	0	7
TAP	100	96	0
TAP	100	96	7
BRK	100	192	0
BRK	100	192	7
TAP	101	0	0
TAP	101	0	1
TAP	101	192	0
TAP	101	192	1
TAP	102	0	7
TAP	102	96	0
TAP	102	192	7
TAP	103	0	6
TAP	103	0	7
TAP	103	192	6
TAP	103	192	7
TAP	104	0	0
TAP	104	0	7
TAP	104	96	0
TAP	104	96	7
HLD	104	192	0	864
HLD	104	192	7	864

T_REC_TAP	158
T_REC_BRK	6
T_REC_XTP	11
T_REC_HLD	15
T_REC_XHO	4
T_REC_STR	4
T_REC_BST	0
T_REC_XST	0
T_REC_TTP	9
T_REC_THO	2
T_REC_SLD	4
T_REC_ALL	213
T_NUM_TAP	182
T_NUM_BRK	6
T_NUM_HLD	21
T_NUM_SLD	4
T_NUM_ALL	213
T_JUDGE_TAP	188
T_JUDGE_HLD	144
T_JUDGE_SLD	4
T_JUDGE_ALL	336
TTM_EACHPAIRS	39
TTM_SCR_TAP	91000
TTM_SCR_BRK	15600
TTM_SCR_HLD	21000
TTM_SCR_SLD	6000
TTM_SCR_ALL	133600
TTM_SCR_S	129050
TTM_SCR_SS	133000
TTM_RAT_ACV	10045

