VERSION	0.00.00	1.03.00
FES_MODE	0
BPM_DEF	130.000	130.000	130.000	130.000
MET_DEF	4	4
RESOLUTION	384
CLK_DEF	384
COMPATIBLE_CODE	MA2

BPM	0	0	130.000
MET	0	0	4	4

HLD	2	0	7	1536
TTP	4	0	0	C	1	M1
TTP	5	0	0	C	1	M1
STR	6	0	0
SCR	6	0	0	96	384	3
TAP	7	288	3
STR	8	0	7
SCL	8	0	7	96	384	4
TAP	9	288	4
STR	10	0	0
SCR	10	0	0	96	384	3
TAP	10	96	4
TAP	10	192	4
TAP	10	288	5
TAP	11	0	5
TAP	11	96	4
TAP	11	192	5
TAP	11	288	3
TAP	11	288	6
STR	12	0	7
SCL	12	0	7	96	384	4
TAP	12	96	3
TAP	12	192	3
TAP	12	288	2
TAP	13	0	1
STR	13	96	0
SI_	13	96	0	96	48	3
TAP	13	144	0
TAP	13	192	4
TAP	13	288	1
TAP	13	288	6
HLD	14	0	2	384
TAP	14	72	3
STR	14	96	3
SI_	14	96	3	96	48	0
TAP	14	144	4
TAP	14	288	4
TAP	14	336	3
HLD	15	0	5	384
TAP	15	72	4
STR	15	96	4
SI_	15	96	4	96	48	7
TAP	15	144	3
TAP	15	288	3
TAP	15	336	4
HLD	16	0	2	384
TAP	16	72	3
STR	16	96	3
SI_	16	96	3	96	48	0
TAP	16	144	4
TAP	16	288	4
TAP	16	336	3
TAP	17	0	4
TAP	17	48	5
STR	17	96	6
SI_	17	96	6	96	48	4
STR	17	144	4
SV_	17	144	4	96	48	2
STR	18	0	2
SI_	18	0	2	96	48	4
TAP	18	0	4
TAP	18	96	5
TAP	18	144	5
TAP	18	192	4
TAP	18	192	6
TAP	18	240	3
TAP	18	288	3
TAP	18	336	4
STR	19	0	2
SI_	19	0	2	96	48	4
TAP	19	0	4
TAP	19	96	5
TAP	19	144	5
TAP	19	192	4
TAP	19	192	6
TAP	19	240	3
TAP	19	288	3
TAP	19	336	4
STR	20	0	2
SI_	20	0	2	96	48	4
TAP	20	0	4
TAP	20	96	5
TAP	20	144	5
TAP	20	192	4
TAP	20	192	6
TAP	20	240	3
TAP	20	288	3
TAP	20	336	4
STR	21	0	2
SI_	21	0	2	96	48	4
TAP	21	0	4
TAP	21	96	5
TAP	21	144	5
TAP	21	192	4
TAP	21	192	6
TAP	21	240	7
TAP	21	288	0
TAP	21	288	7
STR	22	0	2
SI_	22	0	2	96	48	4
TAP	22	0	4
TAP	22	96	5
TAP	22	144	5
STR	22	192	2
SI_	22	192	2	96	48	4
TAP	22	192	6
TAP	22	240	6
TAP	22	288	5
TAP	22	336	5
STR	23	0	2
SI_	23	0	2	96	48	4
TAP	23	0	4
TAP	23	96	5
TAP	23	144	5
STR	23	192	2
SI_	23	192	2	96	48	4
TAP	23	192	6
TAP	23	240	6
TAP	23	288	7
TAP	23	336	6
TAP	24	0	3
STR	24	0	5
SI_	24	0	5	96	48	3
TAP	24	96	2
TAP	24	144	2
TAP	24	192	1
STR	24	192	5
SI_	24	192	5	96	48	3
TAP	24	240	1
TAP	24	288	2
TAP	24	336	2
TAP	25	0	3
STR	25	0	5
SI_	25	0	5	96	48	3
TAP	25	96	2
TAP	25	144	2
TAP	25	192	1
TAP	25	192	5
TAP	25	264	4
TAP	25	288	4
TAP	25	312	3
TAP	25	336	5
TAP	25	360	4
TAP	26	0	3
TAP	26	0	6
STR	26	96	2
SI_	26	96	2	96	480	5
TTP	26	192	7	B	0	M1
TTP	26	192	7	E	0	M1
TTP	27	0	0	B	0	M1
TTP	27	192	1	E	0	M1
TAP	28	0	2
STR	28	96	5
SI_	28	96	5	96	480	2
TTP	28	192	0	B	0	M1
TTP	28	192	1	E	0	M1
TTP	29	0	7	B	0	M1
TTP	29	192	7	E	0	M1
STR	30	0	1
SI_	30	0	1	96	192	6
TAP	30	96	4
TAP	30	192	4
TAP	30	288	4
STR	31	0	6
SI_	31	0	6	96	192	1
TAP	31	96	3
TAP	31	192	3
TAP	31	288	3
STR	32	0	2
SI_	32	0	2	96	48	5
TAP	32	48	2
STR	32	96	6
SI_	32	96	6	96	48	1
TAP	32	144	6
STR	32	192	2
SI_	32	192	2	96	48	5
TAP	32	240	2
TAP	32	288	6
TAP	32	336	7
TAP	33	0	0
TAP	33	24	0
TAP	33	48	7
TAP	33	72	7
TTP	33	96	0	E	0	M1
TTP	33	108	7	E	0	M1
TTP	33	120	6	E	0	M1
TTP	33	132	5	E	0	M1
TTP	33	144	4	E	0	M1
TTP	33	156	3	E	0	M1
TTP	33	168	2	E	0	M1
TTP	33	180	1	E	0	M1
TTP	33	192	0	E	0	M1
TAP	33	288	0
TAP	33	288	7
TAP	34	0	2
TAP	34	0	4
STR	34	48	1
SLR	34	48	1	96	48	7
STR	34	48	3
SCR	34	48	3	96	48	7
XTP	34	144	1
XTP	34	144	3
STR	34	240	1
SI_	34	240	1	96	48	6
TAP	34	240	3
TAP	34	336	1
HLD	34	336	7	96
TAP	35	48	1
TAP	35	96	3
TAP	35	96	5
TAP	35	144	2
STR	35	192	1
SCL	35	192	1	96	48	5
STR	35	240	5
SLR	35	240	5	96	48	2
TAP	35	288	4
TAP	35	336	4
TAP	36	48	1
TAP	36	96	3
TAP	36	96	5
TAP	36	144	6
STR	36	192	7
SI_	36	192	7	96	48	3
STR	36	240	3
SUR	36	240	3	96	48	7
TAP	36	288	2
TAP	36	336	1
HLD	37	0	1	72
TAP	37	72	3
TTP	37	144	1	B	0	M1
TTP	37	144	1	E	0	M1
TTP	37	144	2	B	0	M1
TTP	37	144	3	E	0	M1
TAP	37	240	0
TAP	37	240	7
TAP	37	288	1
TAP	37	288	3
TAP	37	336	2
TAP	37	336	4
TAP	38	0	3
TAP	38	0	5
STR	38	48	4
SCL	38	48	4	96	48	0
STR	38	48	6
SLL	38	48	6	96	48	0
XTP	38	144	4
XTP	38	144	6
TAP	38	240	4
STR	38	240	6
SI_	38	240	6	96	48	1
HLD	38	336	0	96
TAP	38	336	6
TAP	39	48	6
TAP	39	96	2
TAP	39	96	4
TAP	39	144	5
STR	39	192	6
SCR	39	192	6	96	48	2
STR	39	240	2
SLL	39	240	2	96	48	5
TAP	39	288	3
TAP	39	336	3
TAP	40	48	0
STR	40	96	2
SI_	40	96	2	96	48	7
STR	40	96	6
SI_	40	96	6	96	48	3
TAP	40	144	1
TAP	40	144	5
TAP	40	192	2
TAP	40	192	6
TAP	40	288	2
TAP	40	288	6
TAP	41	0	3
TAP	41	0	4
TAP	41	48	1
TAP	41	48	4
TAP	41	96	2
TAP	41	96	6
TAP	41	144	0
TAP	41	144	7
BRK	41	192	2
BRK	41	192	5
TTP	42	0	0	C	1	M1
STR	45	0	0
SI_	45	0	0	96	48	4
BRK	45	96	0
TTP	45	192	0	E	0	M1
TTP	45	204	7	E	0	M1
TTP	45	216	6	E	0	M1
TTP	45	228	5	E	0	M1
TTP	45	240	4	E	0	M1
TTP	45	252	3	E	0	M1
TTP	45	264	2	E	0	M1
TTP	45	276	1	E	0	M1
TTP	45	288	0	E	0	M1
TAP	46	0	3
HLD	46	0	5	48
TAP	46	48	4
TAP	46	72	4
TAP	46	96	6
TAP	46	144	0
HLD	46	168	7	48
TAP	46	216	4
TAP	46	240	4
TAP	46	288	7
TAP	46	312	7
TAP	46	336	0
HLD	47	0	2	48
TAP	47	0	4
TAP	47	48	3
TAP	47	72	3
TAP	47	96	1
TAP	47	144	7
HLD	47	168	0	48
TAP	47	216	3
TAP	47	240	3
TAP	47	288	0
TAP	47	312	0
TAP	47	336	6
TAP	48	0	3
HLD	48	0	5	48
TAP	48	48	4
TAP	48	72	4
TAP	48	96	6
TAP	48	144	0
HLD	48	168	7	48
TAP	48	216	4
TAP	48	240	4
TAP	48	288	7
TAP	48	312	7
TAP	48	336	1
TAP	48	360	1
TAP	49	0	4
HLD	49	24	4	48
TAP	49	72	3
TAP	49	96	5
TAP	49	120	2
HLD	49	144	3	48
XTP	49	192	0
XTP	49	216	0
XTP	49	240	0
XTP	49	264	0
XTP	49	288	0
TTP	49	288	0	C	1	M1
HLD	50	0	1	48
TAP	50	0	7
TAP	50	48	0
TAP	50	72	0
TAP	50	96	2
TAP	50	144	4
HLD	50	168	4	48
TAP	50	216	0
TAP	50	240	0
TAP	50	288	5
TAP	50	312	5
TAP	50	336	4
TAP	51	0	0
HLD	51	0	6	48
TAP	51	48	7
TAP	51	96	4
TAP	51	96	5
TAP	51	144	0
TAP	51	168	0
TAP	51	192	0
TAP	51	192	7
TAP	51	224	4
TAP	51	224	6
TAP	51	256	3
TAP	51	256	5
TAP	51	288	2
TAP	51	288	4
TAP	51	320	1
TAP	51	320	3
TAP	51	352	0
TAP	51	352	7
TAP	52	0	0
TAP	52	0	7
TAP	52	48	6
TAP	52	72	6
TAP	52	96	1
TAP	52	144	4
HLD	52	168	4	48
TAP	52	216	0
TAP	52	240	0
TAP	52	288	6
TAP	52	336	4
HLD	52	336	5	48
TAP	53	0	3
TAP	53	24	3
TAP	53	48	4
TAP	53	72	4
TAP	53	96	1
TAP	53	120	1
TAP	53	144	7
TAP	53	168	7
TTP	53	192	0	E	0	M1
TTP	53	204	7	E	0	M1
TTP	53	216	6	E	0	M1
TTP	53	228	5	E	0	M1
TTP	53	240	4	E	0	M1
TTP	53	252	3	E	0	M1
TTP	53	264	2	E	0	M1
TTP	53	276	1	E	0	M1
TTP	53	288	0	E	0	M1
TAP	54	0	0
TAP	54	24	0
TAP	54	48	7
TAP	54	72	7
TAP	54	96	3
TAP	54	120	3
TAP	54	144	4
TAP	54	168	4
HLD	54	192	0	96
TAP	54	288	7
STR	55	0	3
SI_	55	0	3	96	24	0
STR	55	0	4
SI_	55	0	4	96	24	7
XTP	55	96	3
XTP	55	96	4
TTP	55	102	4	E	0	M1
TTP	55	108	0	C	1	M1
TTP	55	114	0	E	0	M1
STR	55	192	6
SI_	55	192	6	96	48	1
TAP	55	240	6
STR	55	288	3
SI_	55	288	3	96	48	0
TAP	55	336	3
TAP	56	0	7
TAP	56	48	7
TAP	56	96	2
TAP	56	96	5
TAP	56	144	3
TAP	56	144	4
STR	56	192	6
SCR	56	192	6	96	48	2
STR	56	240	2
SLL	56	240	2	96	48	5
TAP	56	288	3
TAP	56	336	3
TAP	57	48	6
TAP	57	96	3
TAP	57	96	5
TAP	57	144	1
STR	57	192	0
SI_	57	192	0	96	48	4
STR	57	240	4
SUL	57	240	4	96	48	0
TAP	57	288	5
TAP	57	336	6
HLD	58	0	6	72
TAP	58	72	4
TTP	58	144	5	B	0	M1
TTP	58	144	5	E	0	M1
TTP	58	144	6	B	0	M1
TTP	58	144	7	E	0	M1
TAP	58	240	0
TAP	58	240	7
TAP	58	288	4
TAP	58	288	6
TAP	58	336	3
TAP	58	336	5
TAP	59	0	2
TAP	59	0	4
STR	59	48	1
SLR	59	48	1	96	48	7
STR	59	48	3
SCR	59	48	3	96	48	7
XTP	59	144	1
XTP	59	144	3
STR	59	240	1
SI_	59	240	1	96	48	6
TAP	59	240	3
TAP	59	336	1
HLD	59	336	7	96
TAP	60	48	1
STR	60	96	2
SI_	60	96	2	96	48	6
STR	60	96	4
SI_	60	96	4	96	48	7
TAP	60	144	3
TAP	60	192	2
TAP	60	192	4
TAP	60	288	2
TAP	60	288	5
TAP	60	336	3
TAP	60	336	4
HLD	61	0	2	48
TAP	61	0	5
TAP	61	72	6
TAP	61	96	4
TAP	61	96	7
TAP	61	144	2
HLD	61	144	5	48
TAP	61	216	1
TAP	61	240	0
TAP	61	240	3
TAP	61	288	2
TAP	61	288	5
TAP	61	336	3
TAP	61	336	5
TAP	62	0	2
TAP	62	0	4
TAP	62	48	5
TAP	62	72	4
TAP	62	120	2
TAP	62	144	3
TAP	62	192	6
TAP	62	216	7
TAP	62	264	1
TAP	62	288	0
TAP	62	336	2
TAP	62	336	4
TAP	63	0	3
STR	63	0	5
SI_	63	0	5	96	48	0
TAP	63	48	6
STR	63	96	2
SI_	63	96	2	96	48	7
TAP	63	96	5
TAP	63	144	1
TAP	63	192	2
STR	63	192	4
SI_	63	192	4	96	48	0
TAP	63	240	6
STR	63	288	3
SI_	63	288	3	96	48	7
TAP	63	288	4
TAP	63	336	1
TAP	64	0	3
STR	64	0	5
SI_	64	0	5	96	48	0
TAP	64	48	6
STR	64	96	2
SI_	64	96	2	96	48	7
TAP	64	96	5
TAP	64	144	1
TAP	64	192	2
STR	64	192	4
SI_	64	192	4	96	48	0
TAP	64	240	6
STR	64	288	3
SI_	64	288	3	96	48	7
TAP	64	288	4
TAP	64	336	1
TAP	65	0	3
TAP	65	0	4
TAP	65	48	4
TAP	65	96	3
TAP	65	96	4
TAP	65	144	4
TAP	65	144	6
TAP	65	192	0
TAP	65	192	7
TAP	65	240	1
TAP	65	240	3
TAP	65	288	3
TAP	65	288	4
TAP	65	336	5
TAP	65	360	5
TAP	66	0	4
TTP	66	48	6	B	0	M1
TTP	66	48	7	E	0	M1
TTP	66	96	1	B	0	M1
TTP	66	96	1	E	0	M1
TTP	66	144	4	E	0	M1
TTP	66	192	0	C	1	M1
TTP	66	192	0	E	0	M1
STR	67	0	3
SCL	67	0	3	96	384	0
TAP	67	96	4
TAP	67	192	4
TAP	67	288	4
TAP	68	0	3
TAP	68	96	4
TAP	68	192	0
TAP	68	192	5
TAP	68	240	6
TAP	68	288	3
TAP	68	288	5
TAP	68	336	2
TAP	69	0	3
STR	69	0	4
SCR	69	0	4	96	384	7
TAP	69	96	3
TAP	69	192	3
TAP	69	288	3
TAP	70	0	4
TAP	70	96	3
TAP	70	192	2
TAP	70	216	2
TAP	70	240	5
TAP	70	264	5
TAP	70	288	3
TAP	70	312	3
TAP	70	336	4
TAP	70	360	4
HLD	71	0	2	288
TAP	71	72	3
STR	71	96	3
SI_	71	96	3	96	48	0
TAP	71	144	5
TAP	71	288	3
TAP	71	312	2
TAP	71	336	4
TAP	71	360	3
HLD	72	0	5	288
TAP	72	72	4
STR	72	96	4
SI_	72	96	4	96	48	7
TAP	72	144	2
TAP	72	288	4
TAP	72	312	5
TAP	72	336	3
TAP	72	360	4
HLD	73	0	2	288
TAP	73	72	3
STR	73	96	3
SI_	73	96	3	96	48	0
TAP	73	144	5
TAP	73	288	3
TAP	73	312	2
TAP	73	336	4
TAP	73	360	3
TAP	74	0	5
TAP	74	24	5
TAP	74	48	1
TAP	74	72	1
TAP	74	96	6
TAP	74	120	6
TAP	74	144	0
HLD	74	168	0	48
TAP	74	216	7
TAP	74	240	7
TAP	74	288	1
TAP	74	288	6
TAP	74	336	1
TAP	74	336	6
TTP	75	0	0	B	0	M1
TTP	75	0	0	E	0	M1
TTP	75	0	7	B	0	M1
TTP	75	72	3	B	0	M1
TTP	75	72	4	B	0	M1
TTP	75	72	4	E	0	M1
TTP	75	144	0	C	0	M1
TTP	75	144	1	B	0	M1
TTP	75	144	2	B	0	M1
TTP	75	144	5	B	0	M1
TTP	75	144	6	B	0	M1

T_REC_TAP	400
T_REC_BRK	3
T_REC_XTP	13
T_REC_HLD	29
T_REC_XHO	0
T_REC_STR	69
T_REC_BST	0
T_REC_XST	0
T_REC_TTP	68
T_REC_THO	0
T_REC_SLD	69
T_REC_ALL	651
T_NUM_TAP	550
T_NUM_BRK	3
T_NUM_HLD	29
T_NUM_SLD	69
T_NUM_ALL	651
T_JUDGE_TAP	553
T_JUDGE_HLD	102
T_JUDGE_SLD	69
T_JUDGE_ALL	724
TTM_EACHPAIRS	104
TTM_SCR_TAP	275000
TTM_SCR_BRK	7800
TTM_SCR_HLD	29000
TTM_SCR_SLD	103500
TTM_SCR_ALL	415300
TTM_SCR_S	402550
TTM_SCR_SS	415000
TTM_RAT_ACV	10007

