VERSION	0.00.00	1.03.00
FES_MODE	0
BPM_DEF	130.000	130.000	130.000	130.000
MET_DEF	4	4
RESOLUTION	384
CLK_DEF	384
COMPATIBLE_CODE	MA2

BPM	0	0	130.000
MET	0	0	4	4

TAP	4	0	2
HLD	4	0	4	288
HLD	5	0	3	288
TAP	5	0	5
TTP	5	288	0	C	1	M1
XST	6	0	1
SCL	6	0	1	96	384	4
XST	6	0	6
SCR	6	0	6	96	384	3
TAP	7	288	3
TAP	7	288	4
XTP	7	336	3
XTP	7	336	4
XST	8	0	3
SXR	8	0	3	96	384	0
XST	8	0	4
SXL	8	0	4	96	384	7
TAP	9	192	0
TAP	9	192	7
BRK	9	288	1
BRK	9	288	6
XHO	10	0	2	72
HLD	10	72	4	72
HLD	10	144	3	72
HLD	10	216	5	72
TAP	10	288	4
HLD	11	0	5	72
HLD	11	72	3	72
HLD	11	144	4	72
HLD	11	216	2	72
TAP	11	288	3
HLD	12	0	2	72
HLD	12	72	3	72
HLD	12	144	4	72
HLD	12	216	5	72
TAP	12	288	4
HLD	13	0	5	72
HLD	13	72	4	72
HLD	13	144	3	72
TAP	13	216	2
BRK	13	288	0
BRK	13	288	7
XHO	14	0	1	72
HLD	14	72	2	72
HLD	14	144	3	72
TAP	14	216	4
TAP	14	288	4
TAP	14	288	5
HLD	15	0	6	72
HLD	15	72	5	72
HLD	15	144	4	72
TAP	15	216	3
TAP	15	288	2
TAP	15	288	3
HLD	16	0	1	72
HLD	16	72	3	72
HLD	16	144	4	72
TAP	16	216	5
TAP	16	288	4
TAP	16	288	6
HLD	17	0	6	72
HLD	17	72	4	72
HLD	17	144	3	240
TTP	18	0	3	E	0	M1
TTP	18	96	1	B	0	M1
TTP	18	96	3	B	0	M1
TTP	18	192	5	E	0	M1
TTP	18	288	4	B	0	M1
TTP	18	288	6	B	0	M1
TTP	19	0	4	E	0	M1
TTP	19	96	3	E	0	M1
TTP	19	96	5	E	0	M1
TTP	19	192	2	E	0	M1
TTP	19	192	6	E	0	M1
TTP	19	288	0	E	0	M1
TTP	19	288	1	E	0	M1
TTP	19	288	7	E	0	M1
THO	20	0	0	192	C	0	M1
TAP	20	288	6
TAP	20	288	7
THO	21	0	0	192	C	0	M1
TAP	21	288	0
TAP	21	288	1
TTP	22	0	2	E	0	M1
TTP	22	96	1	E	0	M1
TTP	22	96	3	E	0	M1
TTP	22	192	6	E	0	M1
TTP	22	288	5	E	0	M1
TTP	22	288	7	E	0	M1
TTP	23	0	3	B	0	M1
TTP	23	0	4	B	0	M1
TTP	23	0	5	B	0	M1
TTP	23	96	0	B	0	M1
TTP	23	96	1	B	0	M1
TTP	23	96	2	B	0	M1
HLD	23	192	6	96
BRK	23	288	7
THO	24	0	0	192	C	0	M1
TAP	24	288	0
TAP	24	288	1
THO	25	0	0	192	C	0	M1
BRK	25	288	6
BRK	25	288	7
STR	26	0	5
SI_	26	0	5	96	96	2
STR	26	192	1
SI_	26	192	1	96	96	5
STR	27	0	7
SI_	27	0	7	96	96	3
TAP	27	288	3
TAP	27	288	4
STR	28	0	2
SI_	28	0	2	96	96	5
STR	28	192	6
SI_	28	192	6	96	96	2
STR	29	0	0
SI_	29	0	0	96	96	4
TAP	29	288	3
TAP	29	288	4
TAP	30	0	2
TAP	30	0	3
TAP	30	96	2
TAP	30	96	3
TAP	30	192	0
TAP	30	192	1
TAP	30	288	0
TAP	30	288	1
TAP	31	0	6
TAP	31	0	7
TAP	31	96	6
TAP	31	96	7
TAP	31	192	4
TAP	31	192	5
TAP	31	288	4
TAP	31	288	5
TAP	32	0	3
TAP	32	48	3
TAP	32	96	4
TAP	32	144	4
TAP	32	192	2
TAP	32	240	2
TAP	32	288	5
TAP	32	336	5
XTP	33	0	0
XTP	33	24	7
XTP	33	48	0
XTP	33	72	7
XTP	33	96	0
XTP	33	120	7
XTP	33	144	0
XTP	33	168	7
XTP	33	192	0
TTP	33	288	0	B	0	M1
TTP	33	288	0	C	1	M1
TTP	33	288	4	B	0	M1
XHO	34	0	6	72
XTP	34	0	7
HLD	34	72	5	72
TAP	34	144	4
TAP	34	240	2
TAP	34	288	1
TAP	34	288	3
STR	35	0	0
SCR	35	0	0	96	48	3
STR	35	96	7
SCL	35	96	7	96	48	4
TAP	35	192	2
TAP	35	288	0
TAP	35	288	5
TAP	36	0	3
TAP	36	48	5
TAP	36	96	4
TAP	36	96	6
TAP	36	192	4
TAP	36	240	2
TAP	36	288	1
TAP	36	288	3
XTP	37	0	2
XTP	37	0	3
XTP	37	72	4
XTP	37	72	5
BRK	37	144	0
BRK	37	144	7
TAP	37	240	4
TAP	37	288	3
TAP	37	336	2
XTP	38	0	0
XHO	38	0	1	72
HLD	38	72	2	72
TAP	38	144	3
TAP	38	240	5
TAP	38	288	4
TAP	38	288	6
STR	39	0	7
SCL	39	0	7	96	48	4
STR	39	96	0
SCR	39	96	0	96	48	3
TAP	39	192	5
TAP	39	288	2
TAP	39	288	7
STR	40	0	2
SI_	40	0	2	96	48	0
STR	40	0	3
SI_	40	0	3	96	48	7
STR	40	192	4
SI_	40	192	4	96	48	0
STR	40	192	5
SI_	40	192	5	96	48	7
TAP	41	0	1
TAP	41	48	1
TAP	41	96	0
XTP	41	192	2
XTP	41	192	7
XTP	41	264	3
XTP	41	264	4
BRK	41	336	0
BST	41	336	5
SCL	41	336	5	96	624	6
TAP	44	48	4
TAP	44	144	4
TAP	44	240	3
TAP	44	336	3
TAP	45	48	4
TAP	45	144	4
TAP	45	192	3
TAP	45	192	4
BRK	45	288	1
BRK	45	288	6
XHO	46	0	2	96
XTP	46	0	3
TTP	46	96	1	B	0	M1
TTP	46	96	2	B	0	M1
TAP	46	192	4
TAP	46	240	5
TAP	46	288	3
TAP	46	288	6
HLD	47	0	6	96
TAP	47	0	7
TTP	47	96	5	B	0	M1
TTP	47	96	6	B	0	M1
TAP	47	192	2
TAP	47	192	3
TAP	47	288	0
TAP	47	288	1
TAP	48	0	4
HLD	48	0	5	96
TTP	48	96	5	B	0	M1
TTP	48	96	6	B	0	M1
TAP	48	192	3
TAP	48	240	2
TAP	48	288	1
TAP	48	288	4
TAP	49	0	0
HLD	49	0	1	96
TTP	49	96	1	B	0	M1
TTP	49	96	2	B	0	M1
TAP	49	192	4
TAP	49	192	5
TTP	49	288	0	C	1	M1
TAP	50	0	0
TAP	50	0	7
TAP	50	48	1
TAP	50	96	2
TAP	50	96	3
TAP	50	192	3
TAP	50	192	6
TAP	50	288	1
TAP	50	288	4
TAP	51	0	4
TAP	51	0	5
TAP	51	48	6
TAP	51	96	0
TAP	51	96	7
XTP	51	192	3
XTP	51	192	4
XTP	51	224	3
XTP	51	224	4
XTP	51	256	3
XTP	51	256	4
BRK	51	288	3
BRK	51	288	4
TAP	52	0	0
TAP	52	0	7
TAP	52	48	6
TAP	52	96	4
TAP	52	96	5
TAP	52	192	1
TAP	52	192	4
TAP	52	288	3
TAP	52	288	6
TAP	53	0	2
TAP	53	0	3
TAP	53	48	1
TAP	53	96	0
TAP	53	96	7
STR	53	192	1
SI_	53	192	1	96	48	3
STR	53	192	6
SI_	53	192	6	96	48	4
XTP	54	0	3
XTP	54	24	4
XTP	54	48	3
XTP	54	72	4
XTP	54	96	3
XTP	54	120	4
XTP	54	144	3
XTP	54	168	4
XTP	54	192	3
STR	54	288	3
SI_	54	288	3	96	48	0
STR	54	288	4
SI_	54	288	4	96	48	7
BRK	55	96	1
BRK	55	96	6
TAP	55	192	2
TAP	55	192	3
TAP	55	240	1
TAP	55	240	4
TAP	55	288	0
TAP	55	288	5
STR	56	0	6
SCL	56	0	6	96	48	3
STR	56	96	7
SCR	56	96	7	96	48	2
TAP	56	192	5
TAP	56	288	4
TAP	56	288	7
TAP	57	0	3
TAP	57	0	4
TAP	57	48	2
TAP	57	96	1
TAP	57	96	3
TAP	57	192	3
TAP	57	192	4
TAP	57	240	5
TAP	57	288	4
TAP	57	288	6
XTP	58	0	1
XTP	58	0	3
XTP	58	72	4
XTP	58	72	6
BRK	58	144	0
BRK	58	144	7
TAP	58	240	4
TAP	58	288	3
TAP	58	336	2
XTP	59	0	0
XHO	59	0	1	72
XHO	59	72	3	72
TAP	59	144	4
TAP	59	240	6
TAP	59	288	5
TAP	59	288	7
STR	60	0	1
SCR	60	0	1	96	48	4
STR	60	96	0
SCL	60	96	0	96	48	5
TAP	60	192	2
TAP	60	288	0
TAP	60	288	3
STR	61	0	2
SLR	61	0	2	96	192	1
STR	61	0	6
SLR	61	0	6	96	192	5
XTP	62	0	2
XTP	62	0	7
XTP	62	72	3
XTP	62	72	4
BRK	62	144	0
BRK	62	144	5
TAP	62	240	3
TAP	62	288	4
TAP	62	336	5
XHO	63	0	6	72
XTP	63	0	7
XHO	63	72	4	72
TAP	63	144	3
TAP	63	240	1
TAP	63	288	0
TAP	63	288	2
STR	64	0	6
SCL	64	0	6	96	48	3
STR	64	96	7
SCR	64	96	7	96	48	2
TAP	64	192	5
TAP	64	288	4
TAP	64	288	7
TAP	65	0	0
TAP	65	0	7
TAP	65	48	1
TAP	65	96	0
TAP	65	96	2
TAP	65	192	0
TAP	65	192	7
TAP	65	240	6
TAP	65	288	5
TAP	65	288	7
TAP	66	0	0
TAP	66	48	0
TAP	66	96	7
TAP	66	144	7
XTP	66	192	0
XTP	66	192	2
XTP	66	264	5
XTP	66	264	7
BRK	66	336	1
BRK	66	336	6
STR	67	0	2
SI_	67	0	2	96	48	0
TAP	67	96	5
STR	67	192	2
SI_	67	192	2	96	48	7
TAP	67	288	6
STR	68	0	5
SI_	68	0	5	96	48	7
TAP	68	96	2
STR	68	192	5
SI_	68	192	5	96	48	0
TAP	68	288	1
STR	69	0	2
SI_	69	0	2	96	48	0
TAP	69	96	5
STR	69	192	2
SI_	69	192	2	96	48	7
TAP	69	288	6
STR	70	0	5
SI_	70	0	5	96	48	7
TAP	70	96	2
TAP	70	192	0
TAP	70	192	1
BRK	70	288	2
BRK	70	288	7
XHO	71	0	1	72
HLD	71	72	3	72
HLD	71	144	4	72
TAP	71	216	5
TAP	71	288	4
TAP	71	288	6
HLD	72	0	6	72
HLD	72	72	4	72
HLD	72	144	3	72
TAP	72	216	2
TAP	72	288	1
TAP	72	288	3
HLD	73	0	2	72
HLD	73	72	0	72
HLD	73	144	7	72
TAP	73	216	5
TAP	73	288	4
TAP	73	288	6
STR	74	0	3
SXR	74	0	3	96	192	0
STR	74	0	7
SXR	74	0	7	96	192	4
XTP	75	0	0
XTP	75	0	7
XTP	75	72	3
XTP	75	72	4
TTP	75	144	0	C	1	M1
TTP	75	144	1	B	0	M1
TTP	75	144	2	B	0	M1
TTP	75	144	5	B	0	M1
TTP	75	144	6	B	0	M1

T_REC_TAP	205
T_REC_BRK	24
T_REC_XTP	55
T_REC_HLD	41
T_REC_XHO	10
T_REC_STR	35
T_REC_BST	1
T_REC_XST	4
T_REC_TTP	44
T_REC_THO	4
T_REC_SLD	40
T_REC_ALL	463
T_NUM_TAP	343
T_NUM_BRK	25
T_NUM_HLD	55
T_NUM_SLD	40
T_NUM_ALL	463
T_JUDGE_TAP	368
T_JUDGE_HLD	129
T_JUDGE_SLD	40
T_JUDGE_ALL	537
TTM_EACHPAIRS	108
TTM_SCR_TAP	171500
TTM_SCR_BRK	65000
TTM_SCR_HLD	55000
TTM_SCR_SLD	60000
TTM_SCR_ALL	351500
TTM_SCR_S	338550
TTM_SCR_SS	349000
TTM_RAT_ACV	10071

