VERSION	0.00.00	1.03.00
FES_MODE	0
BPM_DEF	130.000	130.000	130.000	130.000
MET_DEF	4	4
RESOLUTION	384
CLK_DEF	384
COMPATIBLE_CODE	MA2

BPM	0	0	130.000
MET	0	0	4	4

HLD	4	0	3	576
HLD	5	0	4	192
XHO	6	0	2	192
XHO	6	0	3	192
HLD	7	0	4	192
HLD	7	0	5	192
HLD	8	0	2	192
HLD	8	0	3	192
HLD	9	0	4	192
HLD	9	0	5	192
HLD	10	0	6	192
TAP	10	192	7
HLD	11	0	1	192
TAP	11	192	0
HLD	12	0	7	192
HLD	12	192	0	192
TAP	13	0	7
XTP	13	192	1
XTP	13	192	6
TAP	14	0	0
TAP	14	96	0
TAP	14	192	1
TAP	14	288	1
TAP	15	0	2
TAP	15	0	3
TAP	15	192	4
TAP	15	192	5
TAP	16	0	6
TAP	16	96	6
TAP	16	192	5
TAP	16	288	5
HLD	17	0	3	192
HLD	17	0	4	192
TAP	18	0	5
TAP	18	96	5
TAP	18	192	4
TAP	19	0	3
TAP	19	96	3
TAP	19	192	2
TAP	20	0	1
TAP	20	96	1
TAP	20	192	0
HLD	21	0	0	96
HLD	21	0	7	96
TAP	21	192	0
TAP	21	192	7
TAP	22	0	6
TAP	22	96	6
TAP	22	192	7
TAP	23	0	0
TAP	23	96	0
TAP	23	192	1
TAP	24	0	2
TAP	24	96	2
TAP	24	192	3
TAP	24	288	3
TAP	25	0	4
TAP	25	96	5
XTP	25	192	3
XTP	25	192	5
STR	26	0	4
SUL	26	0	4	96	288	3
TAP	27	192	2
STR	28	0	2
SCL	28	0	2	96	288	5
TAP	29	192	4
STR	30	0	3
SCL	30	0	3	96	192	0
STR	31	0	7
SCL	31	0	7	96	192	4
THO	32	0	0	384	C	1	L1
XTP	34	0	2
TAP	34	96	2
TAP	34	192	2
TAP	34	192	3
TAP	34	288	3
TAP	34	288	4
TAP	35	0	5
TAP	35	96	4
TAP	35	96	5
TAP	35	192	3
TAP	35	192	6
TAP	36	0	5
TAP	36	96	5
TAP	36	192	4
TAP	36	192	5
TAP	36	288	3
TAP	36	288	4
TAP	37	0	2
TAP	37	96	2
TAP	37	96	3
XTP	37	192	1
XTP	37	192	4
XTP	38	0	1
TAP	38	96	1
TAP	38	192	2
TAP	38	288	3
TAP	38	288	4
TAP	39	0	5
TAP	39	96	6
TAP	39	192	6
TAP	39	192	7
TAP	40	0	7
TAP	40	96	7
TAP	40	192	0
TAP	40	288	0
HLD	41	0	0	96
HLD	41	0	7	96
BRK	41	192	1
BRK	41	192	6
STR	42	0	0
SCR	42	0	0	96	672	7
THO	45	0	0	192	C	0	L1
TTP	46	0	2	B	0	L1
TTP	46	96	3	B	0	L1
TTP	46	192	4	E	0	L1
TTP	47	0	6	E	0	L1
TTP	47	96	5	B	0	L1
TTP	47	192	4	B	0	L1
TTP	48	0	3	E	0	L1
TTP	48	96	2	B	0	L1
TTP	48	192	1	B	0	L1
THO	49	0	0	192	C	0	L1
TTP	50	0	6	E	0	L1
TTP	50	96	5	B	0	L1
TTP	50	192	4	B	0	L1
TTP	50	288	4	E	0	L1
TTP	51	0	3	B	0	L1
TTP	51	96	2	B	0	L1
TTP	51	192	2	E	0	L1
TTP	52	0	1	B	0	L1
TTP	52	96	0	C	0	L1
TTP	52	192	5	B	0	L1
TTP	53	0	6	B	0	L1
TTP	53	96	0	C	0	L1
TTP	53	192	2	B	0	L1
TTP	54	0	0	C	1	L1
XTP	55	0	0
XTP	55	96	1
TAP	55	192	2
TAP	55	288	3
TAP	55	288	4
TAP	56	0	5
TAP	56	96	4
TAP	56	96	5
TAP	56	192	3
TAP	56	192	6
TAP	57	0	3
TAP	57	96	2
TAP	57	192	1
TAP	57	288	0
TAP	57	288	7
TAP	58	0	6
TAP	58	96	6
TAP	58	96	7
TAP	58	192	0
TAP	58	192	5
XTP	59	0	7
TAP	59	96	6
TAP	59	192	5
TAP	59	288	4
TAP	59	288	5
TAP	60	0	3
TAP	60	96	2
TAP	60	192	1
TAP	60	288	0
TAP	60	288	1
STR	61	0	7
SSR	61	0	7	96	288	3
XTP	62	192	2
XTP	62	192	5
XTP	63	0	3
XTP	63	0	4
TAP	63	96	3
TAP	63	96	4
TAP	63	192	2
TAP	63	192	5
TAP	63	288	2
TAP	63	288	5
TAP	64	0	1
TAP	64	0	6
TAP	64	96	1
TAP	64	96	6
XTP	64	192	0
XTP	64	192	7
HLD	65	0	0	96
HLD	65	0	1	96
HLD	65	192	6	96
HLD	65	192	7	96
HLD	66	0	0	96
HLD	66	0	7	96
BRK	66	192	1
BRK	66	192	6
TAP	67	0	1
TAP	67	96	2
TAP	67	192	3
TAP	67	288	4
TAP	68	0	5
TAP	68	96	5
TAP	68	192	4
TAP	68	192	6
TAP	69	0	6
TAP	69	96	5
TAP	69	192	4
TAP	69	288	3
TAP	70	0	2
TAP	70	96	2
TAP	70	192	1
TAP	70	192	3
HLD	71	0	1	192
TAP	71	96	0
TAP	71	192	0
HLD	72	0	6	192
TAP	72	96	7
TAP	72	192	7
HLD	73	0	0	96
HLD	73	0	1	96
HLD	73	192	6	96
HLD	73	192	7	96
TAP	74	0	0
TAP	74	0	7
TAP	74	96	1
TAP	74	96	6
XTP	74	192	2
XTP	74	192	5
THO	75	0	0	144	C	0	L1

T_REC_TAP	132
T_REC_BRK	4
T_REC_XTP	19
T_REC_HLD	30
T_REC_XHO	2
T_REC_STR	6
T_REC_BST	0
T_REC_XST	0
T_REC_TTP	23
T_REC_THO	4
T_REC_SLD	6
T_REC_ALL	226
T_NUM_TAP	180
T_NUM_BRK	4
T_NUM_HLD	36
T_NUM_SLD	6
T_NUM_ALL	226
T_JUDGE_TAP	184
T_JUDGE_HLD	127
T_JUDGE_SLD	6
T_JUDGE_ALL	317
TTM_EACHPAIRS	50
TTM_SCR_TAP	90000
TTM_SCR_BRK	10400
TTM_SCR_HLD	36000
TTM_SCR_SLD	9000
TTM_SCR_ALL	145400
TTM_SCR_S	140650
TTM_SCR_SS	145000
TTM_RAT_ACV	10027

