VERSION	0.00.00	1.03.00
FES_MODE	0
BPM_DEF	130.000	130.000	130.000	130.000
MET_DEF	4	4
RESOLUTION	384
CLK_DEF	384
COMPATIBLE_CODE	MA2

BPM	0	0	130.000
MET	0	0	4	4

XTP	6	0	0
XTP	8	0	0
XTP	10	0	7
TAP	11	0	7
XTP	12	0	0
HLD	13	0	0	192
TAP	14	0	7
TAP	14	192	7
TAP	15	0	6
TAP	15	192	6
TAP	16	0	5
TAP	16	192	5
HLD	17	0	4	192
TAP	18	0	3
TAP	18	192	3
TAP	19	0	2
TAP	19	192	2
STR	20	0	1
SI_	20	0	1	96	288	5
TAP	22	0	4
TAP	22	192	4
TAP	23	0	5
TAP	23	192	5
STR	24	0	6
SI_	24	0	6	96	288	2
TTP	26	0	1	B	0	L1
TTP	27	0	2	B	0	L1
TTP	28	0	3	B	0	L1
TTP	29	0	4	B	0	L1
TTP	30	0	5	B	0	L1
TTP	31	0	6	B	0	L1
THO	32	0	0	384	C	1	L1
TAP	34	0	7
TAP	34	96	7
TAP	34	192	7
TAP	35	0	6
TAP	35	96	6
TAP	35	192	6
TAP	36	0	5
TAP	36	96	5
TAP	36	192	4
TAP	36	288	4
TAP	37	0	3
TAP	37	96	3
TAP	37	192	3
TAP	37	192	4
TAP	38	0	3
TAP	38	96	3
TAP	38	192	3
TAP	39	0	2
TAP	39	96	2
TAP	39	192	2
TAP	40	0	1
TAP	40	96	1
TAP	40	192	0
TAP	40	288	0
TAP	41	0	7
TAP	41	96	7
BRK	41	192	0
BRK	41	192	7
TAP	46	0	0
TAP	46	192	0
TAP	47	0	0
TAP	47	0	1
TAP	47	192	0
TAP	47	192	1
TAP	48	0	7
TAP	48	192	7
TAP	49	0	6
TAP	49	0	7
TAP	49	192	6
TAP	49	192	7
TAP	50	0	0
TAP	50	192	0
TAP	51	0	1
BRK	51	192	1
TAP	52	0	2
TAP	52	192	2
TAP	53	0	3
HLD	53	192	3	192
HLD	53	192	4	192
TAP	55	0	4
XTP	55	96	4
TAP	55	192	4
TAP	56	0	5
TAP	56	96	5
TAP	56	192	5
TAP	57	0	6
TAP	57	96	6
TAP	57	192	7
TAP	57	288	7
TAP	58	0	0
TAP	58	96	0
TAP	58	192	0
TAP	58	192	7
TAP	59	0	7
TAP	59	96	7
TAP	59	192	7
TAP	60	0	6
TAP	60	96	6
TAP	60	192	6
HLD	61	0	4	192
HLD	61	0	5	192
BRK	62	0	4
BRK	62	0	5
TAP	63	0	3
TAP	63	96	3
TAP	63	192	3
TAP	64	0	2
TAP	64	96	2
TAP	64	192	2
TAP	65	0	1
TAP	65	96	1
TAP	65	192	0
TAP	65	288	0
TAP	66	0	7
TAP	66	96	7
BRK	66	192	0
BRK	66	192	7
TTP	67	0	0	B	0	L1
TTP	68	0	7	B	0	L1
TTP	69	0	1	B	0	L1
TTP	70	0	6	B	0	L1
TTP	71	0	2	B	0	L1
TTP	72	0	5	B	0	L1
TTP	73	0	3	B	0	L1
TTP	73	0	4	B	0	L1
THO	74	0	0	384	C	1	L1

T_REC_TAP	90
T_REC_BRK	7
T_REC_XTP	5
T_REC_HLD	6
T_REC_XHO	0
T_REC_STR	2
T_REC_BST	0
T_REC_XST	0
T_REC_TTP	14
T_REC_THO	2
T_REC_SLD	2
T_REC_ALL	128
T_NUM_TAP	111
T_NUM_BRK	7
T_NUM_HLD	8
T_NUM_SLD	2
T_NUM_ALL	128
T_JUDGE_TAP	118
T_JUDGE_HLD	40
T_JUDGE_SLD	2
T_JUDGE_ALL	160
TTM_EACHPAIRS	11
TTM_SCR_TAP	55500
TTM_SCR_BRK	18200
TTM_SCR_HLD	8000
TTM_SCR_SLD	3000
TTM_SCR_ALL	84700
TTM_SCR_S	81500
TTM_SCR_SS	84000
TTM_RAT_ACV	10083

