VERSION	0.00.00	1.03.00
FES_MODE	0
BPM_DEF	185.000	185.000	185.000	185.000
MET_DEF	4	4
RESOLUTION	384
CLK_DEF	384
COMPATIBLE_CODE	MA2

BPM	0	0	185.000
MET	0	0	4	4

TAP	3	0	5
TAP	3	96	5
TAP	3	192	5
TAP	3	288	5
TAP	4	0	3
TAP	4	0	4
TAP	4	96	3
TAP	4	96	4
TAP	4	192	2
TAP	4	192	4
TAP	4	240	5
TAP	4	288	2
TAP	4	288	6
TAP	4	336	1
STR	5	0	0
SCR	5	0	0	96	48	3
STR	5	0	7
SUR	5	0	7	96	48	4
TAP	5	192	5
TAP	5	240	5
TAP	5	288	5
TAP	5	336	5
TAP	6	0	3
TAP	6	0	4
TAP	6	96	3
TAP	6	96	4
TAP	6	192	3
TAP	6	192	5
TAP	6	240	2
TAP	6	288	1
TAP	6	288	5
STR	6	336	6
SCL	6	336	6	96	48	4
STR	7	48	0
SV_	7	48	0	96	48	3
STR	7	144	7
SCL	7	144	7	96	48	4
TAP	7	240	0
TAP	7	336	3
TAP	8	0	3
TAP	8	0	4
TAP	8	96	3
TAP	8	96	6
TAP	8	192	2
TAP	8	192	6
TAP	8	240	5
TAP	8	288	2
TAP	8	288	4
TAP	8	336	1
STR	9	0	0
SCR	9	0	0	96	48	3
STR	9	0	4
SUL	9	0	4	96	48	7
TAP	9	192	2
TAP	9	240	2
TAP	9	288	2
TAP	9	288	5
TAP	10	0	3
TAP	10	0	7
TAP	10	48	2
TAP	10	96	1
TAP	10	96	7
TAP	10	144	6
TAP	10	192	1
TAP	10	192	5
STR	10	240	2
SCL	10	240	2	96	144	4
TAP	10	288	3
TAP	10	336	4
BRK	11	192	0
BRK	11	288	1
STR	12	0	5
SI_	12	0	5	96	48	3
TAP	12	96	7
TAP	12	192	2
TAP	12	240	2
TAP	12	288	3
STR	12	336	1
SI_	12	336	1	96	48	4
TAP	13	48	5
STR	13	96	5
SI_	13	96	5	96	48	0
TAP	13	192	2
TAP	13	240	2
TAP	13	288	1
TAP	13	288	3
STR	14	0	2
SI_	14	0	2	96	48	4
TAP	14	96	0
TAP	14	192	5
TAP	14	240	5
TAP	14	288	4
STR	14	336	6
SI_	14	336	6	96	48	3
TAP	15	48	2
STR	15	96	2
SI_	15	96	2	96	48	7
TAP	15	192	5
TAP	15	240	5
TAP	15	288	4
TAP	15	288	6
STR	16	0	5
SI_	16	0	5	96	48	3
TAP	16	96	7
TAP	16	192	2
TAP	16	240	2
TAP	16	288	3
STR	16	336	1
SI_	16	336	1	96	48	4
TAP	17	48	5
STR	17	96	5
SI_	17	96	5	96	48	0
TAP	17	192	2
TAP	17	240	2
TAP	17	288	1
TAP	17	288	3
STR	18	0	2
SI_	18	0	2	96	48	4
TAP	18	96	0
TAP	18	192	5
TAP	18	240	5
TAP	18	288	4
TAP	18	336	1
TAP	18	336	6
TAP	19	48	0
TAP	19	48	7
TAP	19	96	2
TAP	19	96	5
TAP	19	192	3
TAP	19	216	4
TAP	19	240	3
TAP	19	288	2
TAP	19	288	5
TAP	20	0	1
STR	20	48	1
SI_	20	48	1	96	48	6
TAP	20	144	4
STR	20	240	5
SI_	20	240	5	96	48	2
TAP	20	336	0
STR	21	48	1
SCR	21	48	1	96	48	4
TAP	21	144	6
STR	21	240	5
SCR	21	240	5	96	48	0
TAP	21	336	2
STR	22	48	3
SI_	22	48	3	96	48	0
TAP	22	144	5
STR	22	240	4
SCR	22	240	4	96	48	7
STR	22	336	0
SCR	22	336	0	96	48	3
TAP	23	48	7
HLD	23	96	7	96
TAP	23	192	3
TAP	23	240	3
TAP	23	288	2
TAP	23	288	4
TAP	24	0	1
TAP	24	48	1
TAP	24	96	3
TAP	24	96	5
TAP	24	144	2
TAP	24	192	2
TAP	24	192	6
TAP	24	240	5
TAP	24	288	5
TAP	24	336	0
TAP	24	336	3
TAP	25	0	1
TAP	25	48	1
TAP	25	96	2
TAP	25	96	7
TAP	25	144	6
TAP	25	192	4
TAP	25	192	6
STR	25	240	3
SCL	25	240	3	96	48	0
TAP	25	288	3
TAP	25	336	4
STR	26	48	3
SCR	26	48	3	96	96	7
TAP	26	144	2
STR	26	240	4
SCL	26	240	4	96	96	0
TAP	26	336	5
TAP	27	48	4
TAP	27	144	0
TAP	27	144	7
TAP	27	240	2
TAP	27	240	5
TAP	27	288	2
TAP	27	288	5
TAP	28	0	4
TAP	28	0	6
TAP	28	48	5
TAP	28	96	4
TAP	28	144	4
HLD	28	144	6	96
TAP	28	240	3
TAP	28	288	2
TAP	28	288	4
HLD	28	336	1	96
TAP	29	48	4
TAP	29	96	3
TAP	29	96	5
TAP	29	144	2
TAP	29	192	1
TAP	29	192	3
TAP	29	288	5
TAP	29	336	4
TAP	29	336	6
STR	30	48	1
SI_	30	48	1	96	48	6
TAP	30	144	5
TAP	30	192	5
TAP	30	288	7
STR	30	336	7
SI_	30	336	7	96	48	4
TAP	31	48	0
TAP	31	144	3
TAP	31	192	3
TAP	31	192	4
TAP	31	288	2
TAP	31	288	5
TAP	32	0	1
TAP	32	0	3
TAP	32	48	2
TAP	32	96	3
HLD	32	144	1	96
TAP	32	144	3
TAP	32	240	4
TAP	32	288	3
TAP	32	288	5
HLD	32	336	6	96
TAP	33	48	3
TAP	33	96	2
TAP	33	96	4
TAP	33	144	5
TAP	33	192	4
TAP	33	192	6
TAP	33	288	1
TAP	33	288	4
STR	33	336	0
SI_	33	336	0	96	48	3
HLD	34	48	5	96
TAP	34	144	4
TAP	34	192	4
TAP	34	240	3
TAP	34	240	5
TAP	34	288	2
TAP	34	288	6
TAP	34	336	1
TAP	34	336	7
TAP	35	0	0
TAP	35	24	7
TAP	35	48	0
TAP	35	72	7
TAP	35	96	0
TAP	35	120	7
TAP	35	144	0
TAP	35	168	7
TAP	35	192	0
TAP	35	288	2
TAP	35	288	6
STR	36	0	0
SI_	36	0	0	96	48	3
STR	36	0	4
SI_	36	0	4	96	48	7
XTP	36	96	0
XTP	36	96	4
TAP	36	192	6
TAP	36	240	6
TAP	36	288	4
STR	36	336	4
SI_	36	336	4	96	48	0
TAP	37	48	7
TAP	37	96	7
TAP	37	144	6
TAP	37	192	0
TAP	37	192	5
TAP	37	240	2
TAP	37	288	3
TAP	37	288	6
STR	37	336	7
SI_	37	336	7	96	48	3
TAP	38	48	0
TAP	38	96	0
TAP	38	144	1
TAP	38	192	2
TAP	38	192	7
TAP	38	240	5
TAP	38	288	0
TAP	38	288	4
STR	38	336	1
SI_	38	336	1	96	96	4
STR	39	48	4
SI_	39	48	4	96	96	0
STR	39	144	0
SI_	39	144	0	96	96	5
STR	39	240	5
SCR	39	240	5	96	96	2
TTP	39	336	0	C	1	M1
TAP	40	144	7
STR	40	192	7
SI_	40	192	7	96	48	3
TAP	40	288	1
STR	40	336	1
SXR	40	336	1	96	192	2
TAP	41	48	4
TAP	41	96	4
HLD	41	144	4	96
TAP	41	336	0
STR	42	0	0
SI_	42	0	0	96	48	4
TAP	42	96	6
STR	42	144	6
SXR	42	144	6	96	192	7
TAP	42	240	3
HLD	42	336	2	96
TAP	43	144	3
TAP	43	144	4
HLD	43	192	3	48
HLD	43	192	4	48
STR	43	288	0
SI_	43	288	0	96	48	2
STR	43	288	7
SI_	43	288	7	96	48	5
TAP	44	96	2
TAP	44	96	5
HLD	44	144	2	48
HLD	44	144	5	48
STR	44	240	4
SI_	44	240	4	96	48	7
SUR	44	240	4	96	48	3
STR	45	96	0
SSR	45	96	0	96	96	4
STR	45	96	7
SSL	45	96	7	96	96	3
TAP	46	0	2
TAP	46	0	5
STR	46	96	1
SI_	46	96	1	96	48	5
STR	46	192	6
SI_	46	192	6	96	48	2
TAP	46	288	0
STR	46	336	0
SI_	46	336	0	96	48	3
STR	47	48	7
SI_	47	48	7	96	48	4
STR	47	144	1
SI_	47	144	1	96	48	6
TAP	47	240	5
TAP	47	336	7
HLD	48	0	7	96
TAP	48	96	4
TAP	48	192	3
TAP	48	192	6
TAP	48	288	0
TAP	48	336	0
TAP	49	0	7
TAP	49	96	4
TAP	49	96	6
TAP	49	192	3
TAP	49	192	5
HLD	49	288	2	96
TAP	49	288	4
HLD	50	0	0	144
HLD	50	144	7	144
HLD	50	288	5	96
TAP	51	0	2
STR	51	96	3
SI_	51	96	3	96	48	0
STR	51	96	4
SI_	51	96	4	96	48	7
XTP	51	192	3
XTP	51	192	4
XTP	52	0	7
XHO	52	96	7	576
TTP	52	192	1	E	0	M1
TTP	52	240	2	E	0	M1
TTP	52	288	3	E	0	M1
THO	52	336	0	240	C	0	M1
XTP	54	0	0
XHO	54	96	0	576
TTP	54	192	7	E	0	M1
TTP	54	240	6	E	0	M1
TTP	54	288	5	E	0	M1
TTP	54	336	0	C	0	M1
TTP	55	48	2	B	0	M1
TTP	55	48	3	B	0	M1
TTP	55	144	4	B	0	M1
TTP	55	144	5	B	0	M1
TAP	55	240	6
TAP	55	288	6
XTP	56	0	7
XTP	56	96	7
TTP	56	192	1	E	0	M1
TAP	56	192	7
TTP	56	240	2	E	0	M1
TTP	56	288	3	E	0	M1
TAP	56	288	7
THO	56	336	0	144	C	0	M1
TAP	57	0	7
TAP	57	96	7
TAP	57	192	7
TAP	57	288	7
XTP	58	0	0
XTP	58	96	0
TAP	58	192	0
TTP	58	192	7	E	0	M1
TTP	58	240	6	E	0	M1
TAP	58	288	0
TTP	58	288	5	E	0	M1
TTP	58	336	0	C	0	M1
TAP	59	0	0
TTP	59	48	2	B	0	M1
TTP	59	48	3	B	0	M1
TAP	59	96	0
TTP	59	144	4	B	0	M1
TTP	59	144	5	B	0	M1
TAP	59	192	0
TAP	59	240	6
TAP	59	288	0
TAP	59	288	6
TAP	60	0	7
TAP	60	96	7
TTP	60	192	1	E	0	M1
TAP	60	192	7
TTP	60	240	2	E	0	M1
TTP	60	288	3	E	0	M1
TAP	60	288	7
THO	60	336	0	144	C	0	M1
TAP	61	0	7
TAP	61	96	7
TAP	61	192	7
TAP	61	288	7
TAP	62	0	0
TAP	62	96	0
TAP	62	192	0
TTP	62	192	7	E	0	M1
TTP	62	240	6	E	0	M1
TAP	62	288	0
TTP	62	288	5	E	0	M1
TTP	62	336	0	C	0	M1
TAP	63	0	0
TTP	63	48	2	B	0	M1
TTP	63	48	3	B	0	M1
TAP	63	96	0
TTP	63	144	4	B	0	M1
TTP	63	144	5	B	0	M1
TAP	63	192	0
TAP	63	240	6
TAP	63	288	0
TAP	63	288	6
TAP	64	0	0
TAP	64	96	0
TAP	64	192	0
TTP	64	192	7	E	0	M1
TTP	64	240	6	E	0	M1
TAP	64	288	0
TTP	64	288	5	E	0	M1
THO	64	336	0	144	C	0	M1
TAP	65	0	0
TAP	65	96	0
TAP	65	192	0
TAP	65	288	0
TAP	66	0	7
TAP	66	96	7
TTP	66	192	1	E	0	M1
TAP	66	192	7
TTP	66	240	2	E	0	M1
TTP	66	288	3	E	0	M1
TAP	66	288	7
TTP	66	336	0	C	0	M1
TAP	67	0	7
TTP	67	48	4	B	0	M1
TTP	67	48	5	B	0	M1
TAP	67	96	7
TTP	67	144	2	B	0	M1
TTP	67	144	3	B	0	M1
TAP	67	192	7
STR	67	288	7
SCL	67	288	7	96	288	2
HLD	68	0	1	192
TAP	68	288	0
STR	68	336	0
SI_	68	336	0	96	96	3
TAP	69	144	5
TAP	69	192	5
TAP	69	288	7
STR	69	336	7
SCL	69	336	7	96	240	2
TAP	70	48	2
TAP	70	144	1
TAP	70	192	1
TAP	70	288	0
STR	70	336	0
SI_	70	336	0	96	48	4
TAP	71	48	5
TAP	71	96	5
TAP	71	192	2
TAP	71	192	5
TAP	71	240	3
TAP	71	240	4
TAP	71	288	3
TAP	71	288	4
TAP	72	0	1
TAP	72	0	3
TAP	72	72	2
TAP	72	72	4
TAP	72	144	3
TAP	72	144	5
STR	72	192	3
SI_	72	192	3	96	48	0
TAP	72	192	5
TAP	72	288	4
HLD	72	336	4	96
TAP	73	48	0
TAP	73	144	6
HLD	73	192	6	96
TAP	73	288	4
STR	73	336	4
SCL	73	336	4	96	48	1
STR	74	48	7
SCL	74	48	7	96	48	4
TAP	74	144	1
TAP	74	192	1
TAP	74	288	2
TAP	74	288	5
TAP	75	0	0
TAP	75	24	7
TAP	75	48	0
TAP	75	72	7
TAP	75	96	1
TAP	75	120	6
TAP	75	144	1
TAP	75	168	6
TAP	75	192	2
TAP	75	216	5
TAP	75	240	2
TAP	75	264	5
HLD	75	288	3	288
TTP	76	192	4	E	0	M1
XTP	77	0	4
XTP	77	0	6
XTP	77	72	3
XTP	77	72	4
XTP	77	144	1
XTP	77	144	3
XTP	77	192	0
XTP	77	192	7
TAP	77	288	3
TAP	77	288	4
STR	77	336	3
SI_	77	336	3	96	48	0
STR	77	336	4
SI_	77	336	4	96	48	7
XTP	78	48	3
XTP	78	48	4
TAP	78	144	1
TAP	78	144	5
TAP	78	192	2
TAP	78	216	3
TAP	78	240	2
TAP	78	264	4
TAP	78	288	1
STR	78	336	0
SI_	78	336	0	96	48	3
TAP	79	48	0
TAP	79	48	7
TAP	79	96	7
TAP	79	144	6
TAP	79	192	0
TAP	79	192	5
TAP	79	240	2
TAP	79	288	3
TAP	79	288	7
STR	79	336	6
SI_	79	336	6	96	96	3
STR	80	48	3
SI_	80	48	3	96	96	7
STR	80	144	7
SI_	80	144	7	96	96	2
STR	80	240	2
SCL	80	240	2	96	96	5
TTP	80	336	0	C	1	M1
TAP	81	144	0
STR	81	192	0
SI_	81	192	0	96	48	4
TAP	81	288	6
STR	81	336	6
SXR	81	336	6	96	192	7
TAP	82	48	2
TAP	82	96	2
HLD	82	144	2	96
TAP	82	336	7
STR	83	0	7
SI_	83	0	7	96	48	3
TAP	83	96	1
TAP	83	144	1
BST	83	240	0
SI_	83	240	0	96	48	3
BST	83	240	7
SI_	83	240	7	96	48	4
BRK	83	336	0
BRK	83	336	7
STR	84	48	0
SI_	84	48	0	96	48	4
STR	84	96	7
SI_	84	96	7	96	48	3
XTP	84	144	0
XTP	84	192	7
TAP	84	240	2
TAP	84	288	2
TAP	84	288	5
STR	85	0	1
SI_	85	0	1	96	48	6
TAP	85	48	1
STR	85	96	5
SI_	85	96	5	96	48	2
TAP	85	144	5
STR	85	192	0
SI_	85	192	0	96	48	3
TAP	85	240	0
STR	85	288	4
SI_	85	288	4	96	48	7
TAP	85	336	4
STR	86	0	1
SI_	86	0	1	96	48	5
TAP	86	48	1
STR	86	96	0
SI_	86	96	0	96	48	4
TAP	86	144	0
STR	86	192	7
SI_	86	192	7	96	48	3
TAP	86	240	7
STR	86	288	6
SI_	86	288	6	96	48	2
TAP	86	336	6
STR	87	0	0
SI_	87	0	0	96	48	3
TAP	87	48	0
STR	87	96	4
SI_	87	96	4	96	48	7
TAP	87	144	4
XST	87	192	0
SI_	87	192	0	96	48	4
XTP	87	240	0
XTP	87	288	7
XHO	87	336	7	96
HLD	88	48	6	96
HLD	88	144	4	96
STR	88	240	3
SCL	88	240	3	96	336	4
TTP	88	336	0	C	1	M1
TAP	90	0	4
TAP	90	96	3
TAP	90	192	3
TAP	90	192	4
STR	90	288	5
SI_	90	288	5	96	96	0
TAP	91	0	1
STR	91	96	2
SI_	91	96	2	96	96	7
TAP	91	192	6
TAP	91	288	5
TAP	92	0	0
TAP	92	0	7
TAP	92	96	1
TAP	92	96	6
TAP	92	192	2
TAP	92	192	5
STR	92	288	3
SCL	92	288	3	96	384	0
STR	92	288	4
SCR	92	288	4	96	384	7

T_REC_TAP	386
T_REC_BRK	4
T_REC_XTP	24
T_REC_HLD	24
T_REC_XHO	3
T_REC_STR	89
T_REC_BST	2
T_REC_XST	1
T_REC_TTP	48
T_REC_THO	4
T_REC_SLD	93
T_REC_ALL	678
T_NUM_TAP	548
T_NUM_BRK	6
T_NUM_HLD	31
T_NUM_SLD	93
T_NUM_ALL	678
T_JUDGE_TAP	554
T_JUDGE_HLD	92
T_JUDGE_SLD	93
T_JUDGE_ALL	739
TTM_EACHPAIRS	100
TTM_SCR_TAP	274000
TTM_SCR_BRK	15600
TTM_SCR_HLD	31000
TTM_SCR_SLD	139500
TTM_SCR_ALL	460100
TTM_SCR_S	445750
TTM_SCR_SS	459500
TTM_RAT_ACV	10013

