VERSION	0.00.00	1.03.00
FES_MODE	0
BPM_DEF	185.000	185.000	185.000	185.000
MET_DEF	4	4
RESOLUTION	384
CLK_DEF	384
COMPATIBLE_CODE	MA2

BPM	0	0	185.000
MET	0	0	4	4

TAP	3	0	5
TAP	3	96	5
TAP	3	192	5
TAP	3	288	5
HLD	4	0	4	288
TAP	4	96	3
TAP	4	192	3
TAP	4	288	3
HLD	5	0	2	288
TAP	5	96	3
TAP	5	192	3
TAP	5	288	3
HLD	6	0	5	288
TAP	6	96	4
TAP	6	192	4
TAP	6	288	4
TAP	7	0	2
TAP	7	96	1
TAP	7	96	3
TAP	7	192	0
TAP	7	192	7
TAP	7	288	6
HLD	8	0	5	288
TAP	8	96	4
TAP	8	192	4
TAP	8	288	4
HLD	9	0	2	288
TAP	9	96	3
TAP	9	192	3
TAP	9	288	3
TAP	10	0	2
TAP	10	0	4
TAP	10	96	1
TAP	10	192	3
TAP	10	192	5
XHO	10	288	1	192
XHO	10	288	6	192
BRK	11	192	0
BRK	11	288	1
TAP	12	0	3
TAP	12	0	6
TAP	12	96	4
TAP	12	192	2
TAP	12	240	2
TAP	12	288	3
TAP	12	336	1
TAP	13	48	0
TAP	13	48	7
TAP	13	96	0
TAP	13	96	7
TAP	13	192	4
TAP	13	192	6
TAP	13	288	2
TAP	13	288	3
TAP	14	0	1
TAP	14	0	4
TAP	14	96	3
TAP	14	192	5
TAP	14	240	5
TAP	14	288	4
TAP	14	336	6
TAP	15	48	0
TAP	15	48	7
TAP	15	96	0
TAP	15	96	7
TAP	15	192	1
TAP	15	192	3
TAP	15	288	4
TAP	15	288	5
TAP	16	0	3
TAP	16	0	6
TAP	16	96	4
TAP	16	192	2
TAP	16	240	2
TAP	16	288	3
HLD	16	336	0	96
TAP	17	48	7
TAP	17	96	7
TAP	17	192	4
TAP	17	192	6
TAP	17	288	2
TAP	17	288	3
TAP	18	0	1
TAP	18	0	4
TAP	18	96	3
TAP	18	192	5
TAP	18	240	5
TAP	18	288	4
HLD	18	336	7	96
TAP	19	48	0
TAP	19	96	0
TAP	19	192	1
TAP	19	192	6
TAP	20	0	2
TAP	20	96	1
TAP	20	96	3
TAP	20	192	5
TAP	20	288	4
TAP	20	288	6
TAP	21	0	2
TAP	21	96	1
TAP	21	96	3
TAP	21	192	0
TAP	21	240	0
TAP	21	288	7
TAP	22	0	5
TAP	22	96	4
TAP	22	96	6
TAP	22	192	2
TAP	22	288	1
TAP	22	288	3
TAP	23	0	5
TAP	23	96	4
TAP	23	96	6
TAP	23	192	7
TAP	23	240	7
TAP	23	288	0
TAP	24	0	2
TAP	24	96	1
TAP	24	96	3
TAP	24	192	5
TAP	24	288	4
TAP	24	288	6
TAP	25	0	2
TAP	25	96	1
TAP	25	96	3
TAP	25	192	0
TAP	25	192	7
TAP	25	288	2
TAP	25	288	5
HLD	26	0	6	96
HLD	26	96	4	96
HLD	26	192	3	96
HLD	26	288	1	96
HLD	27	0	6	96
TAP	27	96	4
TAP	27	192	3
TAP	27	192	4
TAP	27	288	2
TAP	27	288	5
HLD	28	0	1	288
TAP	28	96	2
TAP	28	144	2
TAP	28	288	4
TAP	28	336	4
TAP	29	48	2
TAP	29	96	2
TAP	29	96	3
STR	29	192	0
SI_	29	192	0	96	96	4
TAP	30	0	5
TAP	30	96	5
TAP	30	192	4
TAP	30	288	3
TAP	31	0	2
TAP	31	0	3
TAP	31	96	1
TAP	31	96	4
TAP	31	192	5
TAP	31	240	5
TAP	31	288	4
HLD	32	0	6	288
TAP	32	96	5
TAP	32	144	5
TAP	32	288	3
TAP	32	336	3
TAP	33	48	5
TAP	33	96	4
TAP	33	96	5
STR	33	192	7
SI_	33	192	7	96	96	3
TAP	34	0	2
TAP	34	96	2
TAP	34	192	4
TAP	34	240	4
TAP	34	288	3
TAP	35	0	3
TAP	35	0	4
TAP	35	96	0
TAP	35	96	7
BRK	35	192	1
BRK	35	192	6
XST	36	0	1
SI_	36	0	1	96	48	4
XTP	36	0	7
XTP	36	192	0
STR	36	192	6
SI_	36	192	6	96	48	3
STR	37	0	1
SI_	37	0	1	96	48	4
TAP	37	0	7
TAP	37	192	0
TAP	37	192	6
TAP	37	288	4
TAP	37	288	5
XTP	38	0	0
XST	38	0	6
SI_	38	0	6	96	48	3
TAP	38	192	1
TAP	38	288	2
TAP	38	336	2
TAP	38	336	3
TAP	39	48	4
TAP	39	48	5
TAP	39	144	6
TAP	39	144	7
TAP	39	240	0
TAP	39	240	1
HLD	39	336	2	96
HLD	39	336	7	96
TAP	40	144	1
HLD	40	192	1	96
TAP	40	288	3
STR	40	336	3
SCR	40	336	3	96	96	7
BRK	41	144	0
TAP	41	336	2
TAP	42	0	2
TAP	42	0	3
TAP	42	96	5
TAP	42	144	4
TAP	42	144	5
TAP	42	240	6
TAP	42	240	7
HLD	42	336	0	96
HLD	42	336	5	96
TAP	43	144	1
TAP	43	144	7
TAP	43	192	1
TAP	43	192	7
TAP	43	288	0
TAP	43	288	6
HLD	43	336	0	96
HLD	43	336	6	96
TAP	44	96	3
TAP	44	96	4
TAP	44	144	3
TAP	44	144	4
TAP	44	240	2
TAP	44	240	5
HLD	44	336	0	96
HLD	44	336	7	96
TAP	45	96	0
TAP	45	96	7
TAP	45	144	0
TAP	45	144	7
TAP	45	240	3
TAP	45	240	4
TAP	45	288	3
TAP	45	288	4
STR	46	0	6
SCL	46	0	6	96	96	3
TAP	46	192	2
TAP	46	288	1
STR	47	0	1
SCR	47	0	1	96	96	4
TAP	47	192	5
TAP	47	288	6
STR	48	0	6
SCL	48	0	6	96	96	3
TAP	48	192	2
TAP	48	288	1
TAP	49	0	1
TAP	49	0	3
TAP	49	96	4
TAP	49	192	5
TAP	49	288	4
TAP	49	288	6
TAP	50	0	7
TAP	50	96	0
TAP	50	192	1
TAP	50	192	3
TAP	50	288	4
STR	51	0	4
SI_	51	0	4	96	96	1
SI_	51	0	4	96	96	7
TAP	52	0	2
TAP	52	96	2
HLD	52	192	2	384
TTP	53	0	0	E	0	M1
TTP	53	192	4	E	0	M1
TAP	54	0	5
TAP	54	96	5
HLD	54	192	5	384
TTP	55	0	0	E	0	M1
TTP	55	192	4	E	0	M1
TAP	56	0	2
TAP	56	96	2
HLD	56	192	2	384
TTP	57	0	0	E	0	M1
TTP	57	96	0	C	0	M1
TTP	57	192	4	E	0	M1
TAP	58	0	5
TAP	58	96	5
HLD	58	192	5	384
TTP	59	0	0	E	0	M1
TTP	59	96	0	C	0	M1
TTP	59	192	4	E	0	M1
STR	60	0	7
SCL	60	0	7	96	96	4
STR	60	192	0
SCR	60	192	0	96	96	3
TTP	61	0	0	E	0	M1
TTP	61	96	0	C	0	M1
TTP	61	192	4	E	0	M1
STR	62	0	0
SCR	62	0	0	96	96	3
STR	62	192	7
SCL	62	192	7	96	96	4
TTP	63	0	0	E	0	M1
TTP	63	96	0	C	0	M1
TTP	63	192	4	E	0	M1
STR	64	0	0
SCR	64	0	0	96	96	3
STR	64	192	7
SCL	64	192	7	96	96	4
TTP	65	0	0	E	0	M1
TTP	65	96	0	C	0	M1
TTP	65	192	4	E	0	M1
STR	66	0	0
SCR	66	0	0	96	96	3
STR	66	192	7
SCL	66	192	7	96	96	4
TTP	67	0	0	E	0	M1
TTP	67	96	0	C	0	M1
TTP	67	192	4	E	0	M1
HLD	68	0	5	768
TAP	68	96	4
TAP	68	192	4
TAP	68	288	4
TAP	69	0	6
TAP	69	96	7
TAP	69	192	0
TAP	69	288	1
HLD	70	0	2	768
TAP	70	96	3
TAP	70	192	3
TAP	70	288	3
TAP	71	0	1
TAP	71	96	0
TAP	71	192	7
TAP	71	288	6
STR	72	0	5
SI_	72	0	5	96	96	1
HLD	72	288	0	288
TAP	73	192	7
TAP	74	0	4
TAP	74	0	6
TAP	74	96	5
TAP	74	192	3
TAP	74	288	2
TAP	75	0	1
TAP	75	0	3
TAP	75	96	3
TAP	75	96	4
TAP	75	192	4
TAP	75	192	6
HLD	75	288	0	288
HLD	75	288	7	288
TTP	77	0	0	C	1	M1
BST	77	192	0
SI_	77	192	0	96	48	3
BST	77	192	7
SI_	77	192	7	96	48	4
TAP	78	0	0
STR	78	0	6
SI_	78	0	6	96	48	3
TAP	78	192	1
TAP	78	192	7
TAP	78	288	2
TAP	78	288	3
XST	79	0	1
SI_	79	0	1	96	48	4
XTP	79	0	7
TAP	79	192	6
TAP	79	288	5
TAP	79	336	4
TAP	79	336	5
TAP	80	48	2
TAP	80	48	3
TAP	80	144	0
TAP	80	144	1
TAP	80	240	6
TAP	80	240	7
HLD	80	336	0	96
HLD	80	336	5	96
TAP	81	144	6
HLD	81	192	6	96
TAP	81	288	4
STR	81	336	4
SCL	81	336	4	96	96	0
BRK	82	144	7
TAP	82	336	5
TAP	83	0	4
TAP	83	0	5
TAP	83	96	2
TAP	83	144	2
TAP	83	144	3
TAP	83	240	0
TAP	83	240	1
HLD	83	336	2	96
HLD	83	336	7	96
STR	84	96	3
SCL	84	96	3	96	96	0
STR	84	96	6
SCL	84	96	6	96	96	3
BRK	85	0	0
BST	85	0	1
SI_	85	0	1	96	48	4
STR	85	96	7
SI_	85	96	7	96	48	3
TAP	85	192	0
TAP	85	288	1
TAP	85	288	4
STR	86	0	6
SI_	86	0	6	96	48	3
TAP	86	0	7
STR	86	96	0
SI_	86	96	0	96	48	4
TAP	86	192	7
TAP	86	288	3
TAP	86	288	6
TAP	87	0	0
STR	87	0	1
SI_	87	0	1	96	48	4
STR	87	96	7
SI_	87	96	7	96	48	3
TAP	87	192	0
TAP	87	288	6
TAP	87	336	6
TAP	87	336	7
TAP	88	48	4
TAP	88	48	5
TAP	88	144	2
TAP	88	144	3
BST	88	240	0
SXR	88	240	0	96	336	5
BST	88	240	1
SXL	88	240	1	96	336	4
TAP	90	0	6
TAP	90	96	6
TAP	90	192	4
TAP	90	192	6
TAP	90	288	3
STR	91	0	3
SCL	91	0	3	96	96	0
STR	91	192	7
SCL	91	192	7	96	96	4
TAP	92	0	2
TAP	92	96	1
HLD	92	192	0	192
TTP	93	0	0	C	1	M1

T_REC_TAP	302
T_REC_BRK	7
T_REC_XTP	4
T_REC_HLD	38
T_REC_XHO	2
T_REC_STR	29
T_REC_BST	5
T_REC_XST	3
T_REC_TTP	24
T_REC_THO	0
T_REC_SLD	38
T_REC_ALL	452
T_NUM_TAP	362
T_NUM_BRK	12
T_NUM_HLD	40
T_NUM_SLD	38
T_NUM_ALL	452
T_JUDGE_TAP	374
T_JUDGE_HLD	178
T_JUDGE_SLD	38
T_JUDGE_ALL	590
TTM_EACHPAIRS	100
TTM_SCR_TAP	181000
TTM_SCR_BRK	31200
TTM_SCR_HLD	40000
TTM_SCR_SLD	57000
TTM_SCR_ALL	309200
TTM_SCR_S	298800
TTM_SCR_SS	308000
TTM_RAT_ACV	10038

