VERSION	0.00.00	1.03.00
FES_MODE	0
BPM_DEF	185.000	185.000	185.000	185.000
MET_DEF	4	4
RESOLUTION	384
CLK_DEF	384
COMPATIBLE_CODE	MA2

BPM	0	0	185.000
MET	0	0	4	4

HLD	4	0	2	384
HLD	5	0	3	384
HLD	6	0	4	384
TAP	7	0	5
HLD	8	0	4	192
HLD	8	0	5	192
HLD	9	0	2	192
HLD	9	0	3	192
STR	10	0	4
SI_	10	0	4	96	288	7
XTP	11	192	0
XTP	11	288	1
TAP	12	0	2
TAP	12	96	2
TAP	12	192	3
TAP	13	0	5
TAP	13	96	5
TAP	13	192	4
TAP	14	0	2
TAP	14	96	2
TAP	14	192	3
TAP	15	0	3
TAP	15	0	4
XTP	15	192	2
XTP	15	192	5
TAP	16	0	6
TAP	16	96	6
TAP	16	192	7
TAP	17	0	1
TAP	17	96	1
TAP	17	192	0
HLD	18	0	0	192
HLD	18	0	7	192
TAP	19	0	1
TAP	19	0	6
XTP	19	192	2
XTP	19	192	5
STR	20	0	2
SI_	20	0	2	96	288	5
TAP	21	192	6
STR	22	0	6
SI_	22	0	6	96	288	3
TAP	23	192	2
STR	24	0	2
SI_	24	0	2	96	288	7
TAP	25	192	6
STR	26	0	6
SI_	26	0	6	96	288	3
XTP	27	192	2
XTP	27	192	4
HLD	28	0	2	192
TAP	28	192	3
TAP	29	0	4
TAP	29	96	4
TAP	29	192	3
HLD	30	0	5	192
TAP	30	192	4
TAP	31	0	6
TAP	31	96	6
TAP	31	192	6
TAP	31	192	7
HLD	32	0	0	192
HLD	32	0	7	192
HLD	33	0	1	192
HLD	33	0	6	192
HLD	34	0	7	192
HLD	34	192	0	192
TAP	35	0	7
BRK	35	192	1
BRK	35	192	6
TAP	36	0	0
TAP	36	96	1
TAP	36	192	2
TAP	36	288	3
TAP	37	0	4
TAP	37	96	5
XTP	37	192	6
XTP	37	192	7
TAP	38	0	7
TAP	38	96	6
TAP	38	192	5
TAP	38	288	4
TAP	39	0	3
TAP	39	96	2
XTP	39	192	0
XTP	39	192	1
TAP	40	0	2
TAP	40	96	2
TAP	40	192	2
TAP	40	192	3
TAP	41	0	5
TAP	41	96	5
TAP	41	192	4
TAP	41	192	5
TAP	42	0	3
TAP	42	96	3
TAP	42	192	4
TAP	42	288	4
TAP	43	0	3
TAP	43	0	4
XTP	43	192	2
XTP	43	192	5
HLD	44	0	2	192
TAP	44	192	3
HLD	45	0	5	192
TAP	45	192	4
HLD	46	0	2	192
TAP	46	192	3
TAP	47	0	1
TAP	47	0	4
TAP	47	192	1
TAP	47	192	4
HLD	48	0	1	192
TAP	48	192	0
HLD	49	0	6	192
TAP	49	192	7
STR	50	0	0
SI_	50	0	0	96	288	3
STR	50	0	7
SI_	50	0	7	96	288	4
XTP	51	192	2
XTP	51	192	5
TTP	52	0	3	B	0	L1
TTP	52	192	2	B	0	L1
TTP	53	0	1	B	0	L1
TTP	53	0	2	E	0	L1
TTP	54	0	4	B	0	L1
TTP	54	192	5	B	0	L1
TTP	55	0	6	B	0	L1
TTP	55	0	6	E	0	L1
TTP	56	0	3	B	0	L1
TTP	56	0	3	E	0	L1
TTP	56	192	2	E	0	L1
TTP	57	0	0	B	0	L1
TTP	57	0	1	E	0	L1
TTP	58	0	4	B	0	L1
TTP	58	0	5	E	0	L1
TTP	58	192	6	E	0	L1
TTP	59	0	7	B	0	L1
TTP	59	0	7	E	0	L1
TTP	60	0	3	B	0	L1
TTP	60	0	4	B	0	L1
TTP	60	192	2	B	0	L1
TTP	60	192	5	B	0	L1
TTP	61	0	1	B	0	L1
TTP	61	0	6	B	0	L1
TTP	62	0	3	E	0	L1
TTP	62	0	5	E	0	L1
TTP	62	192	2	E	0	L1
TTP	62	192	6	E	0	L1
TTP	63	0	1	E	0	L1
TTP	63	0	7	E	0	L1
TTP	64	0	0	E	0	L1
TTP	64	192	7	E	0	L1
TTP	65	0	6	E	0	L1
TTP	65	192	5	E	0	L1
TTP	66	0	4	E	0	L1
TTP	66	192	3	E	0	L1
TTP	67	0	0	C	1	L1
XST	68	0	0
SI_	68	0	0	96	288	3
TAP	69	192	4
STR	70	0	4
SI_	70	0	4	96	288	7
TAP	71	192	0
STR	72	0	0
SCR	72	0	0	96	288	3
TAP	73	192	4
HLD	74	0	3	192
HLD	74	0	4	192
HLD	75	0	2	192
HLD	75	0	5	192
TTP	77	0	0	C	1	L1
XTP	78	0	0
TAP	78	96	1
TAP	78	192	2
TAP	78	288	3
TAP	79	0	4
TAP	79	96	5
TAP	79	192	6
TAP	79	288	7
XTP	80	0	0
XTP	80	0	7
XTP	80	192	1
XTP	80	192	6
TAP	81	0	1
TAP	81	96	1
TAP	81	192	0
TAP	81	192	1
TAP	82	0	6
TAP	82	96	6
TAP	82	192	6
TAP	82	192	7
TAP	83	0	7
TAP	83	96	7
TAP	83	192	0
TAP	83	288	0
TAP	84	0	0
TAP	84	0	7
XTP	84	192	1
XTP	84	192	6
TAP	85	0	7
TAP	85	96	6
TAP	85	192	5
TAP	85	288	4
TAP	86	0	3
TAP	86	96	2
TAP	86	192	1
TAP	86	288	0
XTP	87	0	0
XTP	87	0	7
TAP	87	96	1
TAP	87	192	2
TAP	87	288	3
TAP	88	0	3
TAP	88	0	5
TAP	88	96	3
TAP	88	96	5
TAP	88	192	3
TAP	88	192	5
XST	88	288	4
SCR	88	288	4	96	384	3
XTP	90	192	4
XTP	90	192	5
HLD	91	0	5	192
HLD	91	192	4	192
HLD	92	0	3	192
TAP	92	192	2
TTP	93	0	0	C	1	L1

T_REC_TAP	110
T_REC_BRK	2
T_REC_XTP	27
T_REC_HLD	29
T_REC_XHO	0
T_REC_STR	9
T_REC_BST	0
T_REC_XST	2
T_REC_TTP	39
T_REC_THO	0
T_REC_SLD	11
T_REC_ALL	229
T_NUM_TAP	187
T_NUM_BRK	2
T_NUM_HLD	29
T_NUM_SLD	11
T_NUM_ALL	229
T_JUDGE_TAP	189
T_JUDGE_HLD	128
T_JUDGE_SLD	11
T_JUDGE_ALL	328
TTM_EACHPAIRS	35
TTM_SCR_TAP	93500
TTM_SCR_BRK	5200
TTM_SCR_HLD	29000
TTM_SCR_SLD	16500
TTM_SCR_ALL	144200
TTM_SCR_S	139700
TTM_SCR_SS	144000
TTM_RAT_ACV	10013

