VERSION	0.00.00	1.03.00
FES_MODE	0
BPM_DEF	185.000	185.000	185.000	185.000
MET_DEF	4	4
RESOLUTION	384
CLK_DEF	384
COMPATIBLE_CODE	MA2

BPM	0	0	185.000
MET	0	0	4	4

TAP	4	0	0
TAP	6	0	0
TAP	8	0	7
HLD	10	0	7	384
TAP	12	0	7
TAP	13	0	7
TAP	14	0	6
TAP	15	0	6
TAP	16	0	5
TAP	17	0	5
HLD	18	0	4	384
TAP	20	0	3
TAP	20	192	3
TAP	21	0	3
TAP	22	0	2
TAP	22	192	2
TAP	23	0	2
TAP	24	0	1
TAP	24	192	1
TAP	25	0	1
TAP	26	0	0
TAP	26	192	0
TAP	27	0	0
TAP	27	0	7
STR	28	0	7
SI_	28	0	7	96	288	3
TAP	30	0	2
TAP	31	0	1
STR	32	0	0
SI_	32	0	0	96	288	4
TAP	34	0	5
TAP	34	192	5
TAP	35	0	6
BRK	35	192	6
TAP	36	0	7
TAP	36	96	7
TAP	36	192	7
TAP	37	0	6
TAP	37	96	6
TAP	37	192	6
TAP	38	0	5
TAP	38	96	5
TAP	38	192	5
TAP	39	0	3
TAP	39	0	4
TAP	39	192	3
TAP	39	192	4
HLD	40	0	3	192
HLD	41	0	4	192
TAP	42	0	3
TAP	42	96	3
TAP	42	192	3
XTP	43	0	3
XTP	43	0	4
HLD	44	0	2	384
HLD	46	0	1	384
TAP	48	0	0
TAP	49	0	0
TAP	50	0	7
TAP	50	192	7
XTP	51	0	0
XTP	51	0	7
HLD	52	0	0	384
STR	54	0	0
SI_	54	0	0	96	288	4
HLD	56	0	7	384
STR	58	0	7
SI_	58	0	7	96	288	3
TAP	60	0	2
TAP	60	192	2
TAP	61	0	3
TAP	61	192	3
TAP	62	0	4
TAP	62	192	4
TAP	63	0	5
TAP	63	96	5
BRK	63	192	5
TAP	64	0	4
TAP	64	192	4
TAP	65	0	3
TAP	65	192	3
TAP	66	0	2
TAP	66	192	2
XTP	67	0	2
XTP	67	0	3
TTP	68	0	1	B	0	L1
TTP	69	0	2	B	0	L1
TTP	70	0	3	B	0	L1
TTP	71	0	4	B	0	L1
TTP	72	0	5	B	0	L1
TTP	73	0	6	B	0	L1
THO	74	0	0	384	C	1	L1
XTP	77	0	7
TAP	77	96	7
TAP	77	192	7
TAP	78	0	6
TAP	78	96	6
TAP	78	192	6
TAP	79	0	5
TAP	79	96	5
TAP	79	192	4
TAP	79	288	4
HLD	80	0	3	192
HLD	81	0	4	192
HLD	82	0	3	192
TAP	83	0	4
TAP	83	96	4
TAP	83	192	4
XTP	84	0	3
XTP	84	0	4
TAP	85	0	3
TAP	85	96	3
TAP	85	192	3
TAP	86	0	2
TAP	86	96	2
TAP	86	192	2
TAP	87	0	1
TAP	87	96	1
TAP	87	192	0
TAP	87	288	0
HLD	88	0	7	192
STR	89	0	7
SI_	89	0	7	96	288	3
TAP	91	0	2
TAP	91	192	2
TAP	92	0	3
TAP	92	192	3
HLD	93	0	3	768
HLD	93	0	4	768

T_REC_TAP	87
T_REC_BRK	2
T_REC_XTP	9
T_REC_HLD	14
T_REC_XHO	0
T_REC_STR	5
T_REC_BST	0
T_REC_XST	0
T_REC_TTP	6
T_REC_THO	1
T_REC_SLD	5
T_REC_ALL	129
T_NUM_TAP	107
T_NUM_BRK	2
T_NUM_HLD	15
T_NUM_SLD	5
T_NUM_ALL	129
T_JUDGE_TAP	109
T_JUDGE_HLD	112
T_JUDGE_SLD	5
T_JUDGE_ALL	226
TTM_EACHPAIRS	8
TTM_SCR_TAP	53500
TTM_SCR_BRK	5200
TTM_SCR_HLD	15000
TTM_SCR_SLD	7500
TTM_SCR_ALL	81200
TTM_SCR_S	78600
TTM_SCR_SS	81000
TTM_RAT_ACV	10024

