VERSION	0.00.00	1.03.00
FES_MODE	0
BPM_DEF	196.000	196.000	196.000	196.000
MET_DEF	4	4
RESOLUTION	384
CLK_DEF	384
COMPATIBLE_CODE	MA2

BPM	0	0	196.000
MET	0	0	4	4

STR	1	0	2
SI_	1	0	2	96	48	4
HLD	1	0	5	528
TAP	1	240	4
TAP	1	288	4
TAP	2	0	4
TAP	2	96	3
TAP	2	144	3
TAP	2	240	3
TAP	2	240	5
TAP	2	288	3
TAP	2	288	5
HLD	3	0	2	528
STR	3	0	5
SI_	3	0	5	96	48	3
TAP	3	240	3
TAP	3	288	3
TAP	4	0	3
TAP	4	96	4
TAP	4	144	4
TAP	4	240	3
TAP	4	240	5
TAP	4	288	3
TAP	4	288	5
TAP	5	0	4
TAP	5	48	4
TAP	5	96	3
TAP	5	144	5
TAP	5	192	3
TAP	5	240	3
TAP	5	288	4
TAP	5	336	2
TAP	6	0	5
TAP	6	48	5
TAP	6	96	4
TAP	6	144	6
TAP	6	192	2
TAP	6	240	2
TAP	6	288	4
HLD	7	0	1	96
HLD	7	0	6	96
TAP	7	192	0
TAP	7	192	7
TAP	7	240	0
TAP	7	240	7
XTP	7	336	1
XTP	7	336	3
XTP	8	48	3
XTP	8	48	4
XTP	8	144	4
XTP	8	144	5
XTP	8	192	3
XST	8	192	6
SI_	8	192	6	96	48	2
BRK	8	288	2
HLD	9	0	1	96
STR	9	96	3
SI_	9	96	3	96	48	6
TAP	9	144	3
TAP	9	240	0
TAP	9	288	0
HLD	10	0	6	96
STR	10	96	4
SI_	10	96	4	96	48	1
TAP	10	144	4
TAP	10	240	7
TAP	10	288	7
HLD	11	0	1	96
STR	11	96	3
SI_	11	96	3	96	48	7
TAP	11	144	3
TAP	11	240	0
TAP	11	288	0
TAP	12	0	1
TAP	12	0	7
TAP	12	48	1
TAP	12	48	7
TAP	12	96	2
TAP	12	144	3
STR	12	192	4
SI_	12	192	4	96	48	0
HLD	12	192	5	96
STR	13	0	7
SCL	13	0	7	96	48	4
TTP	13	96	1	B	0	M1
TTP	13	96	2	B	0	M1
STR	13	192	0
SCR	13	192	0	96	48	3
TTP	13	288	4	B	0	M1
TTP	13	288	5	B	0	M1
STR	14	0	7
SCL	14	0	7	96	48	4
TTP	14	96	2	B	0	M1
TTP	14	96	3	B	0	M1
HLD	14	192	1	96
TAP	14	288	0
TAP	15	0	2
TAP	15	48	3
TAP	15	96	1
TAP	15	96	4
TAP	15	144	5
TAP	15	192	4
STR	15	240	3
SCL	15	240	3	96	240	5
TAP	15	240	6
XTP	15	336	5
XTP	16	288	1
XTP	16	288	6
TAP	17	0	3
TAP	17	0	5
TAP	17	96	2
TAP	17	96	5
TAP	17	144	2
TAP	17	192	2
TAP	17	192	5
TAP	17	288	4
TAP	17	288	5
TAP	18	0	2
TAP	18	0	5
TAP	18	96	3
TAP	18	96	5
TAP	18	144	3
TAP	18	192	3
TAP	18	192	5
TAP	18	288	0
TAP	18	288	5
XTP	19	0	2
TAP	19	0	5
TAP	19	96	1
TAP	19	96	5
TAP	19	144	1
TAP	19	192	1
TAP	19	192	5
STR	19	288	2
SI_	19	288	2	96	96	7
TAP	19	288	5
TAP	20	0	5
TAP	20	96	5
HLD	20	192	0	96
TAP	20	192	5
TAP	20	288	5
TAP	21	0	1
TAP	21	0	5
XTP	21	96	2
XTP	21	96	4
TAP	21	144	4
XTP	21	192	2
XTP	21	192	4
TAP	21	288	2
TAP	21	288	5
TAP	22	0	2
TAP	22	0	3
TAP	22	96	2
TAP	22	96	6
TAP	22	144	6
TAP	22	192	2
TAP	22	192	6
TAP	22	288	2
TAP	22	288	4
TAP	23	0	2
TAP	23	0	7
TAP	23	96	2
TAP	23	96	3
TAP	23	144	3
TAP	23	192	2
STR	23	192	3
SI_	23	192	3	96	48	5
TAP	23	288	1
STR	23	336	1
SLR	23	336	1	96	96	7
TAP	24	48	6
STR	24	96	6
SCL	24	96	6	96	48	3
BRK	24	192	0
TAP	24	288	1
XTP	25	0	2
XTP	25	0	4
TAP	25	96	2
TAP	25	96	3
TAP	25	144	3
TAP	25	192	2
TAP	25	192	3
TAP	25	288	2
TAP	25	288	5
TAP	26	0	2
TAP	26	0	4
TAP	26	96	2
TAP	26	96	6
TAP	26	144	6
TAP	26	192	2
TAP	26	192	6
TAP	26	288	2
STR	26	288	3
SCR	26	288	3	96	96	7
XTP	27	0	2
TAP	27	96	2
TAP	27	192	2
TAP	27	192	7
TAP	27	288	2
TAP	27	288	5
TAP	28	0	2
TAP	28	0	6
TAP	28	96	2
TAP	28	96	4
TAP	28	144	4
XTP	28	192	2
HLD	28	192	4	96
XTP	28	288	2
TAP	29	0	0
TAP	29	0	7
TAP	29	48	1
TAP	29	48	6
BRK	29	96	2
XTP	29	96	5
TAP	29	192	4
TAP	29	192	5
STR	29	288	3
SCL	29	288	3	96	96	7
TAP	29	288	5
TAP	30	0	5
TAP	30	96	5
TAP	30	192	5
TAP	30	192	7
TAP	30	288	2
TAP	30	288	5
TAP	31	0	1
TAP	31	0	5
TAP	31	96	3
TAP	31	96	5
TAP	31	144	3
TAP	31	192	3
TAP	31	192	5
TAP	31	288	1
TAP	31	288	5
TAP	32	0	3
TAP	32	0	4
TAP	32	96	1
TAP	32	144	1
TAP	32	144	3
TAP	32	240	6
STR	32	288	4
SCR	32	288	4	96	1056	3
TAP	32	288	6
HLD	33	0	7	768
THO	35	288	0	288	C	0	M1
TTP	36	192	1	B	0	M1
TTP	36	192	2	B	0	M1
TTP	36	192	5	B	0	M1
TTP	36	192	6	B	0	M1
TAP	36	336	0
TAP	37	0	0
TAP	37	0	7
STR	37	96	1
SI_	37	96	1	96	48	3
TAP	37	96	3
TAP	37	192	5
TAP	37	288	4
STR	37	288	6
SI_	37	288	6	96	48	4
TAP	38	0	2
TAP	38	96	0
STR	38	96	3
SI_	38	96	3	96	48	7
HLD	38	192	2	96
XTP	38	288	7
TAP	39	0	4
TAP	39	0	6
TAP	39	48	4
TAP	39	48	6
TAP	39	144	1
TAP	39	144	3
TAP	39	192	1
TAP	39	192	3
TAP	39	288	6
TAP	39	288	7
XTP	39	336	0
XTP	39	336	5
XTP	40	48	4
XTP	40	48	6
XTP	40	144	2
XTP	40	144	3
XST	40	192	1
SI_	40	192	1	96	48	5
XTP	40	192	4
BRK	40	288	1
BRK	40	288	5
TAP	41	0	7
TAP	41	48	6
TAP	41	96	4
TAP	41	96	6
TAP	41	144	3
TAP	41	192	2
TAP	41	240	1
STR	41	240	3
SI_	41	240	3	96	48	6
STR	41	336	0
SI_	41	336	0	96	48	4
XTP	42	48	7
STR	42	144	2
SCL	42	144	2	96	48	7
TAP	42	144	6
TAP	42	192	5
TAP	42	240	4
TAP	42	336	5
TAP	43	0	3
TAP	43	0	5
TAP	43	48	2
TAP	43	96	1
TAP	43	96	4
TAP	43	144	0
TAP	43	192	1
TAP	43	192	3
STR	43	240	2
SI_	43	240	2	96	48	7
TAP	43	240	4
TAP	43	288	5
STR	43	336	6
SI_	43	336	6	96	48	3
STR	44	48	1
SCL	44	48	1	96	96	4
BRK	44	144	4
XTP	44	240	7
XTP	44	288	7
TAP	45	0	4
TAP	45	0	6
TAP	45	48	5
TAP	45	96	3
TAP	45	96	4
TAP	45	144	2
TAP	45	192	1
STR	45	240	1
SI_	45	240	1	96	48	4
STR	45	240	7
SI_	45	240	7	96	48	3
XTP	45	336	1
XTP	45	336	7
STR	46	48	0
SI_	46	48	0	96	48	4
STR	46	48	6
SI_	46	48	6	96	48	3
XTP	46	144	0
XTP	46	144	6
BRK	46	240	1
BRK	46	240	5
TAP	46	336	3
TAP	46	336	4
STR	47	0	5
SI_	47	0	5	96	48	0
TAP	47	48	5
STR	47	96	1
SCR	47	96	1	96	48	4
TAP	47	144	1
TAP	47	192	6
HLD	47	240	6	96
XTP	47	336	0
TAP	48	48	4
TAP	48	48	5
TAP	48	96	3
STR	48	96	6
SI_	48	96	6	96	48	3
TAP	48	192	0
TAP	48	192	6
BRK	48	288	1
BRK	48	288	7
STR	49	0	0
SCR	49	0	0	96	96	4
STR	49	96	4
SCR	49	96	4	96	96	0
TAP	49	192	0
TAP	49	288	4
TAP	50	0	4
STR	50	0	6
SI_	50	0	6	96	48	3
TAP	50	96	3
TAP	50	144	2
HLD	50	192	1	96
TAP	50	288	0
TAP	51	0	0
STR	51	0	7
SCR	51	0	7	96	96	3
STR	51	96	3
SCR	51	96	3	96	96	7
TAP	51	192	7
TAP	51	288	3
TAP	52	0	1
TAP	52	0	5
XTP	52	96	2
XTP	52	96	6
XST	52	144	2
SV_	52	144	2	96	48	0
XST	52	144	6
SV_	52	144	6	96	48	4
STR	53	0	1
SCR	53	0	1	96	96	5
STR	53	96	5
SCR	53	96	5	96	96	1
TAP	53	192	1
TAP	53	288	5
TAP	54	0	3
TAP	54	0	7
XTP	54	96	1
XTP	54	96	5
BST	54	144	1
SV_	54	144	1	96	48	3
BST	54	144	5
SV_	54	144	5	96	48	7
XTP	55	0	1
XTP	55	0	5
TAP	55	48	2
TAP	55	72	3
TAP	55	96	2
TAP	55	144	5
TAP	55	168	4
TAP	55	192	5
TAP	55	240	2
TAP	55	264	3
TAP	55	288	1
TAP	55	336	5
TAP	55	360	4
HLD	56	0	6	192
STR	56	96	7
SCL	56	96	7	96	192	0
THO	57	0	0	768	C	0	M1
STR	59	0	0
SUL	59	0	0	96	288	7
STR	60	0	4
SUL	60	0	4	96	288	3
THO	61	0	0	768	C	0	M1
STR	63	0	7
SCL	63	0	7	96	288	0
TAP	64	192	3
TAP	64	192	4
HLD	65	0	3	672
HLD	65	0	4	96
HLD	65	192	4	96
HLD	66	0	5	96
HLD	66	192	6	96
HLD	67	0	2	96
HLD	67	0	4	672
HLD	67	192	2	96
HLD	68	0	1	96
HLD	68	192	0	96
THO	69	0	0	768	C	0	M1
TAP	69	0	5
TAP	69	96	5
TAP	69	192	5
TAP	69	288	5
TAP	70	0	6
TAP	70	96	6
TAP	70	192	6
TAP	70	288	6
TAP	71	0	7
TAP	71	96	7
TAP	71	192	0
TAP	71	192	6
TAP	71	240	0
TAP	71	240	6
TTP	71	336	2	B	0	M1
TTP	71	336	2	E	0	M1
TTP	71	336	3	B	0	M1
TTP	72	48	4	B	0	M1
TTP	72	48	4	E	0	M1
TTP	72	48	5	B	0	M1
TTP	72	144	6	B	0	M1
TTP	72	144	6	E	0	M1
TTP	72	144	7	B	0	M1
TTP	72	240	0	B	0	M1
TTP	72	240	0	E	0	M1
TTP	72	240	1	B	0	M1
TTP	72	336	0	C	0	M1
TTP	72	336	2	B	0	M1
TTP	72	336	5	B	0	M1
HLD	73	192	3	48
HLD	73	192	4	48
BRK	74	0	1
BRK	74	0	5
TAP	74	48	2
TAP	74	96	3
TAP	74	96	6
TAP	74	144	7
TAP	74	192	0
TAP	74	240	1
STR	74	240	3
SI_	74	240	3	96	48	6
STR	74	336	0
SI_	74	336	0	96	48	4
XTP	75	48	7
STR	75	144	2
SCL	75	144	2	96	48	7
TAP	75	144	6
TAP	75	192	5
TAP	75	240	4
TAP	75	336	5
TAP	76	0	3
TAP	76	0	5
TAP	76	48	2
TAP	76	96	0
TAP	76	96	1
TAP	76	144	7
TAP	76	192	4
TAP	76	192	6
TAP	76	240	3
STR	76	240	5
SI_	76	240	5	96	48	0
TAP	76	288	2
STR	76	336	1
SI_	76	336	1	96	48	5
STR	77	48	6
SCR	77	48	6	96	96	4
BRK	77	144	4
XTP	77	240	0
XTP	77	288	0
TAP	78	0	1
TAP	78	0	3
TAP	78	48	2
TAP	78	96	3
TAP	78	96	4
TAP	78	144	5
TAP	78	192	0
TAP	78	192	6
STR	78	240	0
SI_	78	240	0	96	48	4
STR	78	240	6
SI_	78	240	6	96	48	3
XTP	78	336	0
XTP	78	336	6
STR	79	48	1
SI_	79	48	1	96	48	4
STR	79	48	7
SI_	79	48	7	96	48	3
XTP	79	144	1
XTP	79	144	7
BRK	79	240	2
BRK	79	240	6
TAP	79	336	3
TAP	79	336	4
STR	80	0	2
SI_	80	0	2	96	48	7
TAP	80	48	2
STR	80	96	6
SCL	80	96	6	96	48	3
TAP	80	144	6
TAP	80	192	1
HLD	80	240	1	96
TAP	80	336	7
TAP	81	48	4
TAP	81	48	5
STR	81	96	4
SI_	81	96	4	96	48	0
TAP	81	96	5
TAP	81	192	7
XTP	81	288	2
XTP	81	288	6
BRK	82	0	1
BRK	82	0	4
BRK	82	48	3
BRK	82	48	6
BRK	82	96	0
BRK	82	96	5
BRK	82	144	2
BRK	82	144	7
BRK	82	192	3
BRK	82	192	5
BST	82	240	1
SV_	82	240	1	96	48	4
BST	82	240	7
SV_	82	240	7	96	48	4
BRK	82	336	1
BRK	82	336	7
TTP	82	337	0	C	1	M1
XTP	83	48	2
XTP	83	48	6
TAP	83	144	0
TAP	83	144	7
TAP	83	192	1
TAP	83	192	6
TAP	83	240	2
TAP	83	240	5
TAP	83	336	2
TAP	83	336	3
STR	84	0	1
SI_	84	0	1	96	48	5
TAP	84	48	1
STR	84	96	4
SI_	84	96	4	96	48	0
TAP	84	144	4
STR	84	192	2
SI_	84	192	2	96	48	6
TAP	84	240	2
TAP	84	288	5
HLD	84	336	5	96
STR	85	48	4
SCL	85	48	4	96	48	1
SCR	85	48	4	96	48	7
XTP	85	240	2
XTP	85	240	6
BRK	85	288	2
BRK	85	288	6
TAP	86	0	4
TAP	86	0	6
TAP	86	48	7
TAP	86	96	1
TAP	86	96	3
TAP	86	144	0
TAP	86	192	0
TAP	86	192	7
STR	86	240	6
SI_	86	240	6	96	48	3
STR	86	240	7
SV_	86	240	7	96	48	2
XTP	86	336	6
XTP	86	336	7
STR	87	48	0
SI_	87	48	0	96	48	5
STR	87	48	1
SV_	87	48	1	96	48	4
XTP	87	144	0
XTP	87	144	1
BRK	87	240	3
BRK	87	240	6
TAP	87	336	6
TAP	87	336	7
STR	88	0	5
SI_	88	0	5	96	48	1
TAP	88	48	5
STR	88	96	3
SI_	88	96	3	96	48	7
TAP	88	144	3
TAP	88	192	7
TAP	88	240	6
TAP	88	288	5
XST	88	336	1
SXR	88	336	1	96	144	1
XST	88	336	5
SXR	88	336	5	96	144	5
BRK	89	288	2
BRK	89	288	6
TAP	90	0	1
TAP	90	0	4
TAP	90	48	0
TAP	90	96	1
TAP	90	96	3
TAP	90	144	2
STR	90	192	1
SI_	90	192	1	96	48	4
TAP	90	192	3
TAP	90	288	4
TAP	90	336	5
STR	91	0	7
SI_	91	0	7	96	48	3
TAP	91	96	3
TAP	91	144	2
HLD	91	192	1	96
TAP	91	288	0
TAP	92	0	3
TAP	92	0	6
TAP	92	48	7
TAP	92	96	4
TAP	92	96	6
TAP	92	144	5
STR	92	192	4
SI_	92	192	4	96	48	0
TAP	92	192	6
TAP	92	288	7
TAP	92	336	6
HLD	93	0	1	96
TAP	93	0	5
TAP	93	96	0
TAP	93	144	2
STR	93	144	7
SI_	93	144	7	96	48	3
TAP	93	240	0
BRK	93	288	0
TAP	94	0	1
TAP	94	0	4
TAP	94	48	2
TAP	94	96	1
TAP	94	96	4
TAP	94	144	5
TAP	94	192	3
TAP	94	192	6
TAP	94	240	7
TAP	94	288	0
TAP	94	288	7
XST	94	336	0
SUR	94	336	0	96	48	4
XST	94	336	1
SCR	94	336	1	96	48	4
XTP	95	48	0
XTP	95	48	1
TAP	95	144	6
TAP	95	144	7
TAP	95	192	0
TAP	95	192	5
TAP	95	240	1
TAP	95	240	4
TAP	95	336	4
TAP	95	336	5
STR	96	0	6
SI_	96	0	6	96	48	2
TAP	96	48	6
STR	96	96	3
SI_	96	96	3	96	48	7
TAP	96	144	3
TAP	96	192	7
TAP	96	240	6
TAP	96	288	5
STR	96	336	0
SF_	96	336	0	96	144	4
TAP	96	336	4
BRK	97	288	1
BRK	97	288	7
TAP	98	0	0
TAP	98	0	6
TAP	98	48	5
TAP	98	96	3
TAP	98	96	6
TAP	98	144	2
TAP	98	192	1
TAP	98	192	4
TAP	98	240	0
TAP	98	288	0
TAP	98	288	7
XTP	98	336	1
XTP	98	336	6
XST	99	48	3
SXR	99	48	3	96	144	4
XST	99	48	4
SXL	99	48	4	96	144	3
TAP	99	336	1
TAP	99	336	6
TAP	100	0	1
TAP	100	0	6
STR	100	48	2
SCL	100	48	2	96	264	5
TAP	100	48	5
TAP	100	96	3
TAP	100	96	4
TAP	101	96	2
TAP	101	96	4
STR	101	192	2
SUL	101	192	2	96	288	5
HLD	101	192	4	768
TAP	103	0	5
TAP	103	96	5
STR	103	192	5
SI_	103	192	5	96	48	1
TAP	103	208	6
TAP	103	224	7
TAP	103	240	0
TAP	103	256	1
TAP	103	272	2
BRK	103	288	3
BRK	103	288	5
XTP	104	0	0
XTP	104	0	3
TAP	104	96	2
TAP	104	96	4
TAP	104	144	2
TAP	104	192	2
TAP	104	192	6
TAP	104	240	6
TAP	104	288	4
TAP	104	288	6
TAP	105	0	2
STR	105	0	3
SCR	105	0	3	96	48	6
TAP	105	48	2
TAP	105	96	2
TAP	105	144	2
TAP	105	192	2
STR	105	192	3
SI_	105	192	3	96	48	7
TAP	105	288	0
XTP	106	0	1
XTP	106	0	6
TAP	106	96	4
TAP	106	96	5
TAP	106	144	5
TAP	106	192	1
TAP	106	192	5
TAP	106	240	1
TAP	106	288	1
TAP	106	288	3
STR	107	0	4
SCL	107	0	4	96	48	1
TAP	107	0	6
TAP	107	48	6
TAP	107	96	6
TAP	107	144	6
STR	107	192	4
SI_	107	192	4	96	48	0
XHO	107	192	5	96
TAP	108	0	1
STR	108	0	7
SCL	108	0	7	96	48	4
TTP	108	96	3	B	0	M1
TTP	108	96	4	B	0	M1
STR	108	192	2
SCL	108	192	2	96	48	7
TTP	108	288	6	B	0	M1
TTP	108	288	7	B	0	M1
STR	109	0	5
SCL	109	0	5	96	48	2
TTP	109	96	1	B	0	M1
TTP	109	96	2	B	0	M1
STR	109	192	0
SI_	109	192	0	96	48	4
XTP	109	288	7
TAP	110	0	5
TAP	110	48	4
TAP	110	96	3
TAP	110	96	6
TAP	110	144	2
TAP	110	168	2
TAP	110	192	3
STR	110	240	1
SI_	110	240	1	96	48	5
TAP	110	240	4
XTP	110	336	1
XTP	110	336	7
XTP	111	48	4
XTP	111	48	6
XTP	111	144	1
XTP	111	144	3
XST	111	240	4
SV_	111	240	4	96	48	1
XST	111	240	5
SI_	111	240	5	96	48	1
BRK	111	336	4
BRK	111	336	5
TTP	111	338	0	C	1	M1

T_REC_TAP	441
T_REC_BRK	40
T_REC_XTP	75
T_REC_HLD	33
T_REC_XHO	1
T_REC_STR	86
T_REC_BST	4
T_REC_XST	12
T_REC_TTP	33
T_REC_THO	4
T_REC_SLD	103
T_REC_ALL	832
T_NUM_TAP	647
T_NUM_BRK	44
T_NUM_HLD	38
T_NUM_SLD	103
T_NUM_ALL	832
T_JUDGE_TAP	691
T_JUDGE_HLD	192
T_JUDGE_SLD	103
T_JUDGE_ALL	986
TTM_EACHPAIRS	216
TTM_SCR_TAP	323500
TTM_SCR_BRK	114400
TTM_SCR_HLD	38000
TTM_SCR_SLD	154500
TTM_SCR_ALL	630400
TTM_SCR_S	607250
TTM_SCR_SS	626000
TTM_RAT_ACV	10070

