VERSION	0.00.00	1.03.00
FES_MODE	0
BPM_DEF	196.000	196.000	196.000	196.000
MET_DEF	4	4
RESOLUTION	384
CLK_DEF	384
COMPATIBLE_CODE	MA2

BPM	0	0	196.000
MET	0	0	4	4

HLD	1	0	6	768
TTP	2	0	6	E	0	M1
TTP	2	192	0	E	0	M1
HLD	3	0	4	768
TTP	4	0	5	E	0	M1
TTP	4	192	6	E	0	M1
HLD	5	0	3	768
TTP	6	0	3	E	0	M1
TTP	6	192	2	E	0	M1
TAP	7	0	2
TAP	7	96	2
TAP	7	192	2
TAP	7	288	3
TAP	7	288	5
TAP	7	336	3
TAP	7	336	5
TAP	8	48	2
TAP	8	48	4
XHO	8	144	3	48
XHO	8	144	5	48
BRK	8	288	0
HLD	9	0	6	96
TAP	9	96	4
TAP	9	192	3
TAP	9	240	3
TAP	9	288	2
TAP	9	288	4
TAP	10	0	1
HLD	10	48	1	96
TAP	10	144	3
TAP	10	192	2
TAP	10	240	4
TAP	10	288	3
TAP	10	288	5
HLD	11	0	6	96
TAP	11	96	4
TAP	11	192	3
TAP	11	240	3
TAP	11	288	2
TAP	11	288	4
TAP	12	0	1
HLD	12	48	1	96
TAP	12	144	3
TAP	12	192	2
TAP	12	240	4
TAP	12	288	3
TAP	12	288	4
HLD	13	0	1	96
TAP	13	96	3
TAP	13	192	4
TAP	13	240	4
TAP	13	288	3
TAP	13	288	5
TAP	14	0	6
HLD	14	48	6	96
TAP	14	144	4
TAP	14	192	5
TAP	14	240	3
TAP	14	288	2
TAP	14	288	4
TAP	15	0	1
TAP	15	48	1
TAP	15	96	7
TAP	15	144	7
TAP	15	192	0
TAP	15	240	0
TAP	15	288	5
HLD	15	336	5	336
BRK	16	288	0
HLD	17	0	2	672
TAP	17	0	4
TAP	17	96	4
TAP	17	192	3
TAP	17	288	3
TAP	18	0	7
TAP	18	96	7
TAP	18	192	6
TAP	18	288	4
TAP	19	0	3
HLD	19	0	5	672
TAP	19	96	3
TAP	19	192	4
TAP	19	288	4
TAP	20	0	0
TAP	20	96	0
TAP	20	192	1
TAP	20	288	3
HLD	21	0	2	672
HLD	21	0	4	96
TAP	21	192	3
TAP	21	288	3
TAP	22	0	7
TTP	22	96	0	C	0	M1
TTP	22	192	0	E	0	M1
TTP	22	288	4	E	0	M1
TAP	23	0	3
HLD	23	0	5	672
TAP	23	96	3
STR	23	192	4
SUL	23	192	4	96	288	2
TAP	24	288	0
TAP	25	0	4
TAP	25	96	3
TAP	25	96	5
TAP	25	192	2
TAP	25	288	1
TAP	25	288	3
STR	26	0	0
SI_	26	0	0	96	96	4
STR	26	192	6
SI_	26	192	6	96	96	2
HLD	27	0	1	96
HLD	27	96	3	96
TAP	27	192	4
TAP	27	288	5
TAP	27	336	5
TAP	28	0	4
TAP	28	96	3
TAP	28	96	6
TAP	28	192	1
TAP	28	192	4
TAP	28	288	2
TAP	28	288	5
TAP	29	0	0
TAP	29	0	7
BRK	29	96	1
BRK	29	96	6
STR	29	192	2
SI_	29	192	2	96	96	5
HLD	30	0	6	96
HLD	30	96	4	96
TAP	30	192	3
TAP	30	288	2
TAP	30	336	2
TAP	31	0	3
TAP	31	96	1
TAP	31	96	4
TAP	31	192	3
TAP	31	192	6
HLD	31	288	2	96
HLD	32	0	0	96
HLD	32	96	7	96
HLD	32	192	5	96
STR	32	288	2
SCL	32	288	2	96	384	4
STR	35	0	7
SI_	35	0	7	96	96	4
STR	35	192	0
SXR	35	192	0	96	384	3
HLD	37	0	5	192
TAP	37	96	4
HLD	37	192	2	192
TAP	37	288	3
HLD	38	0	6	192
TAP	38	96	7
HLD	38	192	1	192
TAP	38	288	0
TAP	39	0	7
TAP	39	48	7
TAP	39	144	2
TAP	39	144	6
TAP	39	192	2
TAP	39	192	6
TAP	39	288	1
TAP	39	288	5
TAP	39	336	1
TAP	39	336	5
TAP	40	48	2
TAP	40	48	4
XHO	40	144	3	48
XHO	40	144	5	48
BRK	40	288	1
BRK	40	288	6
STR	41	0	0
SI_	41	0	0	96	48	4
STR	41	96	7
SI_	41	96	7	96	48	3
TAP	41	192	1
HLD	41	240	1	96
TAP	41	336	7
STR	42	48	2
SCL	42	48	2	96	96	7
STR	42	48	6
SCL	42	48	6	96	96	3
TAP	42	336	1
HLD	43	0	1	96
HLD	43	96	3	96
HLD	43	192	4	96
TAP	43	288	6
STR	43	336	6
SI_	43	336	6	96	96	2
STR	44	144	1
SI_	44	144	1	96	96	5
STR	45	0	7
SI_	45	0	7	96	48	3
STR	45	96	0
SI_	45	96	0	96	48	4
TAP	45	192	6
HLD	45	240	6	96
TAP	45	336	0
STR	46	48	1
SCR	46	48	1	96	96	4
STR	46	48	5
SCR	46	48	5	96	96	0
TAP	46	336	6
HLD	47	0	6	96
HLD	47	96	4	96
TAP	47	192	3
STR	47	240	3
SCL	47	240	3	96	240	4
TAP	48	288	2
TAP	48	288	5
TAP	49	0	4
HLD	49	0	6	96
TAP	49	96	4
HLD	49	192	1	96
TAP	49	192	3
TAP	49	288	3
TAP	50	0	0
TAP	50	0	1
TAP	50	96	6
TAP	50	96	7
TAP	50	192	4
TAP	50	192	5
TAP	50	288	2
TAP	50	288	3
HLD	51	0	1	96
TAP	51	0	3
TAP	51	96	3
TAP	51	192	4
HLD	51	192	6	96
TAP	51	288	4
TAP	52	0	6
TAP	52	0	7
TAP	52	96	0
STR	52	144	0
SI_	52	144	0	96	96	4
TAP	53	0	4
HLD	53	0	6	96
TAP	53	96	4
HLD	53	192	1	96
TAP	53	192	3
TAP	53	288	3
TAP	54	0	0
TAP	54	0	1
TAP	54	96	6
TAP	54	96	7
TAP	54	192	4
TAP	54	192	5
TAP	54	288	3
TAP	54	288	6
STR	55	0	2
SI_	55	0	2	96	96	5
STR	55	192	6
SI_	55	192	6	96	96	1
HLD	56	0	2	192
HLD	56	192	3	1344
HLD	57	0	7	1152
HLD	60	192	4	960
THO	61	0	0	1152	C	0	M1
TAP	65	0	4
TAP	65	96	4
TAP	65	192	4
TAP	65	288	4
TAP	66	0	3
TAP	66	96	3
TAP	66	192	3
TAP	66	288	3
TAP	67	0	4
TAP	67	96	4
TAP	67	192	3
TAP	67	288	3
TAP	68	0	4
TAP	68	96	4
TAP	68	192	5
TAP	68	288	5
TAP	69	0	1
TAP	69	96	1
TAP	69	192	7
TAP	69	288	7
HLD	70	0	3	96
HLD	70	96	2	96
HLD	70	192	1	96
HLD	70	288	0	96
HLD	71	0	7	96
HLD	71	96	6	96
TAP	71	192	5
TAP	71	288	3
TAP	71	288	4
TAP	71	336	3
TAP	71	336	4
TAP	72	48	3
TAP	72	48	5
TAP	72	144	2
TAP	72	144	4
TAP	72	240	3
TAP	72	240	6
HLD	72	336	1	336
HLD	72	336	4	336
BST	74	0	7
SI_	74	0	7	96	48	3
STR	74	96	0
SI_	74	96	0	96	48	4
TAP	74	192	5
HLD	74	240	5	96
TAP	74	336	0
STR	75	48	2
SCL	75	48	2	96	96	7
STR	75	48	6
SCL	75	48	6	96	96	3
TAP	75	336	5
HLD	76	0	5	96
HLD	76	96	7	96
HLD	76	192	0	96
TAP	76	288	2
STR	76	336	2
SI_	76	336	2	96	96	7
STR	77	144	6
SI_	77	144	6	96	96	3
STR	78	0	0
SI_	78	0	0	96	48	4
HLD	78	96	7	96
TAP	78	192	2
TAP	78	240	2
TAP	78	336	1
TAP	78	336	5
STR	79	48	2
SCL	79	48	2	96	96	7
STR	79	48	6
SCL	79	48	6	96	96	3
TAP	79	336	1
HLD	80	0	1	96
HLD	80	96	3	96
TAP	80	192	4
STR	80	240	4
SCR	80	240	4	96	240	3
TAP	81	288	2
TAP	81	288	5
TTP	82	0	1	B	0	M1
TTP	82	0	1	E	0	M1
TTP	82	0	6	B	0	M1
TTP	82	0	7	E	0	M1
TTP	82	96	0	E	0	M1
THO	82	192	0	144	C	1	M1
XTP	83	144	0
XTP	83	144	7
XTP	83	240	1
XTP	83	240	6
TAP	83	336	2
HLD	84	0	2	96
HLD	84	96	0	96
HLD	84	192	7	96
TAP	84	288	5
STR	84	336	5
SI_	84	336	5	96	96	0
STR	85	144	1
SI_	85	144	1	96	96	4
STR	86	0	7
SI_	86	0	7	96	48	3
HLD	86	96	0	96
TAP	86	192	5
TAP	86	240	5
TAP	86	336	2
TAP	86	336	6
STR	87	48	1
SCR	87	48	1	96	96	4
STR	87	48	5
SCR	87	48	5	96	96	0
TAP	87	336	6
HLD	88	0	6	96
HLD	88	96	4	96
TAP	88	192	3
STR	88	240	3
SCL	88	240	3	96	240	4
TAP	89	288	2
TAP	89	288	5
TAP	90	0	1
TAP	90	48	1
TAP	90	96	3
TAP	90	192	6
TAP	90	240	6
TAP	90	288	4
TAP	91	0	6
TAP	91	0	7
TAP	91	96	0
TAP	91	96	1
TAP	91	192	2
TAP	91	192	3
TAP	91	288	4
TAP	91	288	5
TAP	92	0	6
TAP	92	48	6
TAP	92	96	4
TAP	92	192	1
TAP	92	240	1
TAP	92	288	3
TAP	93	0	2
TAP	93	0	5
TAP	93	96	7
HLD	93	144	7	96
TAP	93	240	0
TAP	93	288	0
TAP	94	0	6
TAP	94	0	7
TAP	94	96	3
TAP	94	96	4
TAP	94	192	0
TAP	94	192	1
TAP	94	288	2
TAP	94	288	5
TAP	94	336	2
TAP	94	336	5
STR	95	48	0
SCR	95	48	0	96	96	3
STR	95	48	7
SCL	95	48	7	96	96	4
TAP	95	336	5
TAP	96	0	4
TAP	96	0	5
TAP	96	96	2
TAP	96	96	4
TAP	96	192	3
TAP	96	192	6
TAP	96	288	0
TAP	96	288	4
TAP	96	336	0
STR	96	336	4
SCR	96	336	4	96	240	3
TAP	98	0	2
TAP	98	0	3
TAP	98	96	0
TAP	98	96	7
TAP	98	192	4
TAP	98	192	5
TAP	98	288	1
TAP	98	288	6
TAP	98	336	1
TAP	98	336	6
STR	99	48	3
SCL	99	48	3	96	96	0
STR	99	48	4
SCR	99	48	4	96	96	7
TAP	99	336	2
TAP	100	0	2
TAP	100	0	3
TAP	100	96	3
TAP	100	96	5
TAP	100	192	1
TAP	100	192	4
HLD	100	288	3	432
HLD	100	288	7	1056
TAP	103	0	3
TAP	103	96	3
TAP	103	192	3
BRK	103	288	1
BRK	103	288	5
HLD	104	0	6	96
TAP	104	96	7
TAP	104	192	3
TAP	104	240	3
TAP	104	288	2
TAP	104	288	4
TAP	105	0	1
HLD	105	48	1	96
TAP	105	144	3
TAP	105	192	2
TAP	105	240	4
TAP	105	288	3
TAP	105	288	5
HLD	106	0	6	96
TAP	106	96	7
TAP	106	192	3
TAP	106	240	3
TAP	106	288	2
TAP	106	288	4
TAP	107	0	1
HLD	107	48	1	96
TAP	107	144	3
TAP	107	192	2
TAP	107	240	4
TAP	107	288	3
TAP	107	288	4
HLD	108	0	1	96
TAP	108	96	0
TAP	108	192	4
TAP	108	240	4
TAP	108	288	3
TAP	108	288	5
TAP	109	0	6
HLD	109	48	6	96
TAP	109	144	4
TAP	109	192	5
TAP	109	240	3
TAP	109	288	2
TAP	109	288	4
TAP	110	0	1
TAP	110	48	1
TAP	110	96	7
TAP	110	144	7
TAP	110	192	0
TAP	110	240	0
TAP	110	336	2
TAP	110	336	4
TAP	111	48	3
TAP	111	48	5
TAP	111	144	1
TAP	111	144	4
TAP	111	240	3
TAP	111	240	6
TTP	111	336	0	C	1	M1
TTP	111	336	1	B	0	M1
TTP	111	336	5	B	0	M1

T_REC_TAP	319
T_REC_BRK	8
T_REC_XTP	4
T_REC_HLD	74
T_REC_XHO	4
T_REC_STR	41
T_REC_BST	1
T_REC_XST	0
T_REC_TTP	17
T_REC_THO	2
T_REC_SLD	42
T_REC_ALL	512
T_NUM_TAP	381
T_NUM_BRK	9
T_NUM_HLD	80
T_NUM_SLD	42
T_NUM_ALL	512
T_JUDGE_TAP	390
T_JUDGE_HLD	387
T_JUDGE_SLD	42
T_JUDGE_ALL	819
TTM_EACHPAIRS	100
TTM_SCR_TAP	190500
TTM_SCR_BRK	23400
TTM_SCR_HLD	80000
TTM_SCR_SLD	63000
TTM_SCR_ALL	356900
TTM_SCR_S	345350
TTM_SCR_SS	356000
TTM_RAT_ACV	10025

