VERSION	0.00.00	1.03.00
FES_MODE	0
BPM_DEF	196.000	196.000	196.000	196.000
MET_DEF	4	4
RESOLUTION	384
CLK_DEF	384
COMPATIBLE_CODE	MA2

BPM	0	0	196.000
MET	0	0	4	4

HLD	1	0	2	384
HLD	1	0	3	384
HLD	3	0	4	384
HLD	3	0	5	384
HLD	5	0	3	384
HLD	6	0	4	384
HLD	7	0	3	336
XTP	7	336	4
XTP	8	48	4
XTP	8	144	3
XTP	8	144	4
TAP	9	0	2
TAP	9	96	2
TAP	9	192	2
TAP	10	0	1
TAP	10	96	1
TAP	10	192	0
TAP	10	192	1
TAP	11	0	7
TAP	11	96	7
TAP	11	192	7
TAP	12	0	6
TAP	12	96	6
TAP	12	192	6
TAP	12	192	7
HLD	13	0	5	192
TAP	13	192	4
HLD	14	0	2	192
TAP	14	192	3
STR	15	0	3
SI_	15	0	3	96	288	0
STR	15	0	4
SI_	15	0	4	96	288	7
XTP	16	192	1
XTP	16	192	6
TAP	17	0	1
TAP	17	96	1
TAP	17	192	1
TAP	18	0	3
TAP	18	96	3
TAP	18	192	3
TAP	19	0	4
TAP	19	96	4
TAP	19	192	4
TAP	20	0	3
TAP	20	0	4
TAP	20	192	2
TAP	20	192	5
TAP	21	0	5
TAP	21	96	5
TAP	21	192	5
TAP	22	0	7
TAP	22	96	7
TAP	22	192	7
STR	23	0	0
SI_	23	0	0	96	288	3
STR	23	0	7
SI_	23	0	7	96	288	4
XTP	24	192	2
XTP	24	192	5
TAP	25	0	2
TAP	25	96	2
TAP	25	192	4
TAP	25	288	4
TAP	26	0	3
TAP	26	192	3
TAP	26	192	4
TAP	27	0	5
TAP	27	96	5
TAP	27	192	3
TAP	27	288	3
TAP	28	0	4
TAP	28	192	3
TAP	28	192	4
XTP	29	0	2
XTP	29	96	2
XTP	29	192	2
TAP	30	0	1
TAP	30	96	1
TAP	30	192	0
TAP	30	192	1
TAP	31	0	7
TAP	31	96	7
TAP	31	192	0
TAP	31	288	0
TAP	32	0	7
XTP	32	192	1
XTP	32	192	6
THO	33	0	0	1056	C	0	L1
TTP	37	0	6	E	0	L1
TTP	37	192	4	B	0	L1
TTP	37	192	5	E	0	L1
TTP	38	0	2	E	0	L1
TTP	38	192	3	B	0	L1
TTP	38	192	3	E	0	L1
TTP	39	0	2	B	0	L1
TTP	39	0	5	B	0	L1
TTP	39	192	1	B	0	L1
TTP	39	192	6	B	0	L1
TTP	40	0	0	C	1	L1
XTP	41	0	0
TAP	41	96	0
TAP	41	192	1
TAP	41	288	1
TAP	42	0	2
TAP	42	0	3
TAP	42	192	3
TAP	42	192	4
TAP	43	0	4
TAP	43	96	4
TAP	43	192	5
TAP	43	288	5
TAP	44	0	6
TAP	44	0	7
TAP	44	192	0
TAP	44	192	7
TAP	45	0	1
TAP	45	96	1
XTP	45	192	0
XTP	45	192	1
TAP	46	0	6
TAP	46	96	6
XTP	46	192	6
XTP	46	192	7
TAP	47	0	0
TAP	47	96	0
TAP	47	192	7
TAP	47	288	7
TAP	48	0	0
TAP	48	0	7
BRK	48	192	1
BRK	48	192	6
STR	49	0	1
SI_	49	0	1	96	288	4
TAP	50	192	5
STR	51	0	6
SI_	51	0	6	96	288	3
TAP	52	192	2
STR	53	0	1
SI_	53	0	1	96	288	5
TAP	54	192	6
STR	55	0	0
SV_	55	0	0	96	288	3
STR	55	0	7
SV_	55	0	7	96	288	4
XTP	56	192	2
XTP	56	192	5
THO	57	0	0	1152	C	0	L1
THO	61	0	0	1152	C	0	L1
TTP	61	0	1	B	0	L1
TTP	61	0	6	B	0	L1
HLD	65	0	1	384
HLD	66	0	2	384
HLD	67	0	3	384
HLD	68	0	4	384
TAP	69	0	5
TAP	69	192	4
TAP	69	192	5
TAP	70	0	2
TAP	70	192	2
TAP	70	192	3
HLD	71	0	4	336
XTP	71	336	3
XTP	72	48	3
XTP	72	48	4
XTP	72	144	3
XTP	72	144	4
XTP	72	240	3
XTP	72	240	4
XTP	72	336	2
XTP	72	336	5
XTP	74	0	1
TAP	74	96	1
TAP	74	192	2
TAP	74	288	3
TAP	75	0	4
TAP	75	0	5
TAP	75	96	4
TAP	75	96	5
TAP	75	192	4
TAP	75	192	5
TAP	76	0	6
TAP	76	96	6
TAP	76	192	5
TAP	76	288	4
TAP	77	0	2
TAP	77	0	3
TAP	77	96	2
TAP	77	96	3
TAP	77	192	2
TAP	77	192	3
TAP	78	0	1
TAP	78	96	1
XTP	78	192	0
XTP	78	192	1
TAP	79	0	6
TAP	79	96	6
XTP	79	192	6
XTP	79	192	7
TAP	80	0	7
TAP	80	96	7
TAP	80	192	0
TAP	80	288	0
XTP	81	0	0
XTP	81	0	7
XTP	81	192	1
XTP	81	192	6
TAP	82	0	0
TAP	82	96	0
TAP	82	192	7
TAP	82	288	7
XTP	83	0	0
XTP	83	0	7
TAP	83	192	1
TAP	83	192	6
TAP	84	0	1
TAP	84	96	1
TAP	84	192	2
TAP	84	192	3
TAP	84	288	2
TAP	84	288	3
TAP	85	0	4
TAP	85	96	5
TAP	85	192	4
TAP	85	192	5
TAP	86	0	6
TAP	86	0	7
TAP	86	96	6
TAP	86	96	7
XTP	86	192	6
XTP	86	192	7
TAP	87	0	0
TAP	87	0	1
TAP	87	96	0
TAP	87	96	1
XTP	87	192	0
XTP	87	192	1
TAP	88	0	0
TAP	88	96	0
TAP	88	192	7
TAP	88	288	7
XTP	89	0	0
XTP	89	0	7
XTP	89	96	1
XTP	89	96	6
XTP	89	192	2
XTP	89	192	5
STR	90	0	3
SI_	90	0	3	96	288	0
TAP	91	192	7
TAP	91	288	7
STR	92	0	7
SCL	92	0	7	96	288	4
XTP	93	192	2
XTP	93	192	3
HLD	94	0	2	192
TAP	94	96	3
TAP	94	192	3
HLD	95	0	5	192
TAP	95	96	4
TAP	95	192	4
TAP	96	0	5
TAP	96	96	4
TAP	96	192	3
STR	96	288	2
SI_	96	288	2	96	288	5
HLD	98	0	6	192
TAP	98	96	7
TAP	98	192	7
HLD	99	0	1	192
TAP	99	96	0
TAP	99	192	0
HLD	100	0	0	192
HLD	100	0	7	192
STR	101	0	1
SCR	101	0	1	96	480	6
TAP	103	0	7
TAP	103	96	7
TAP	103	192	7
XTP	103	288	0
XTP	103	288	7
TAP	104	0	1
TAP	104	96	2
TAP	104	192	3
TAP	104	288	4
TAP	105	0	5
TAP	105	96	5
TAP	105	192	4
TAP	105	192	5
TAP	106	0	6
TAP	106	96	5
TAP	106	192	4
TAP	106	288	3
TAP	107	0	2
TAP	107	96	2
XTP	107	192	1
XTP	107	192	3
XTP	108	0	2
TAP	108	96	1
TAP	108	192	0
TAP	108	288	7
TAP	109	0	6
TAP	109	96	6
TAP	109	192	0
TAP	109	192	6
XHO	110	0	7	192
XTP	110	336	0
XTP	110	336	7
XTP	111	48	0
XTP	111	48	7
XTP	111	144	0
XTP	111	144	7
XTP	111	240	0
XTP	111	240	7
BRK	111	336	1
BRK	111	336	6

T_REC_TAP	184
T_REC_BRK	4
T_REC_XTP	65
T_REC_HLD	20
T_REC_XHO	1
T_REC_STR	13
T_REC_BST	0
T_REC_XST	0
T_REC_TTP	13
T_REC_THO	3
T_REC_SLD	13
T_REC_ALL	316
T_NUM_TAP	275
T_NUM_BRK	4
T_NUM_HLD	24
T_NUM_SLD	13
T_NUM_ALL	316
T_JUDGE_TAP	279
T_JUDGE_HLD	200
T_JUDGE_SLD	13
T_JUDGE_ALL	492
TTM_EACHPAIRS	66
TTM_SCR_TAP	137500
TTM_SCR_BRK	10400
TTM_SCR_HLD	24000
TTM_SCR_SLD	19500
TTM_SCR_ALL	191400
TTM_SCR_S	185300
TTM_SCR_SS	191000
TTM_RAT_ACV	10020

