VERSION	0.00.00	1.03.00
FES_MODE	0
BPM_DEF	196.000	196.000	196.000	196.000
MET_DEF	4	4
RESOLUTION	384
CLK_DEF	384
COMPATIBLE_CODE	MA2

BPM	0	0	196.000
MET	0	0	4	4

HLD	9	0	3	384
HLD	11	0	3	384
HLD	13	0	4	384
XHO	15	0	3	336
XHO	15	0	4	336
TAP	17	0	3
TAP	17	192	3
TAP	18	0	3
TAP	19	0	2
TAP	19	192	2
TAP	20	0	2
TAP	21	0	1
TAP	21	192	1
TAP	22	0	1
TAP	23	0	0
TAP	23	192	0
XTP	24	0	0
XTP	24	0	7
TAP	25	0	7
TAP	25	192	7
TAP	26	0	7
TAP	27	0	6
TAP	27	192	6
TAP	28	0	6
TAP	29	0	5
TAP	29	192	5
TAP	30	0	5
TAP	31	0	4
TAP	31	192	4
XTP	32	0	3
XTP	32	0	4
TTP	33	0	3	B	0	L1
TTP	34	0	4	B	0	L1
TTP	35	0	2	B	0	L1
TTP	36	0	5	B	0	L1
TTP	37	0	3	B	0	L1
TTP	37	0	4	B	0	L1
TTP	38	0	2	B	0	L1
TTP	38	0	5	B	0	L1
THO	39	0	0	336	C	1	L1
TAP	41	0	7
TAP	41	96	7
TAP	41	192	7
TAP	42	0	0
TAP	42	96	0
TAP	42	192	0
TAP	43	0	1
TAP	43	96	1
TAP	43	192	1
XHO	44	0	2	192
TAP	45	0	3
TAP	45	96	3
TAP	45	192	3
TAP	46	0	4
TAP	46	96	4
TAP	46	192	4
TAP	47	0	5
TAP	47	96	5
TAP	47	192	5
XHO	48	0	6	192
STR	49	0	7
SI_	49	0	7	96	288	4
STR	51	0	0
SI_	51	0	0	96	288	3
STR	53	0	7
SI_	53	0	7	96	288	3
TAP	55	0	0
TAP	55	0	7
TAP	55	192	0
TAP	55	192	7
TAP	56	0	1
TAP	56	0	6
TAP	56	192	1
TAP	56	192	6
XHO	57	0	2	768
XHO	57	0	5	768
TAP	60	192	0
TAP	60	192	7
XHO	61	0	0	1152
XHO	61	0	7	1152
TTP	65	0	0	B	0	L1
TTP	66	0	7	B	0	L1
TTP	67	0	1	B	0	L1
TTP	68	0	6	B	0	L1
TTP	69	0	2	B	0	L1
TTP	69	192	3	B	0	L1
TTP	70	0	4	B	0	L1
TTP	70	192	5	B	0	L1
THO	71	0	0	336	C	1	L1
XTP	74	0	0
TAP	74	96	0
TAP	74	192	0
TAP	75	0	1
TAP	75	96	1
TAP	75	192	1
TAP	76	0	2
TAP	76	96	2
TAP	76	192	3
TAP	76	288	3
XHO	77	0	3	192
XHO	77	0	4	192
TAP	78	0	4
TAP	78	96	4
TAP	78	192	4
TAP	79	0	5
TAP	79	96	5
TAP	79	192	5
TAP	80	0	6
TAP	80	96	6
TAP	80	192	7
TAP	80	288	7
XHO	81	0	0	192
XHO	81	0	7	192
BRK	82	0	7
TAP	82	96	7
TAP	82	192	7
TAP	83	0	6
TAP	83	96	6
TAP	83	192	6
TAP	83	192	7
TAP	84	0	5
TAP	84	96	5
TAP	84	192	4
TAP	84	288	4
XHO	85	0	3	192
XHO	85	0	4	192
TAP	86	0	3
TAP	86	96	3
TAP	86	192	3
TAP	87	0	2
TAP	87	96	2
TAP	87	192	2
TAP	87	192	3
TAP	88	0	1
TAP	88	96	1
TAP	88	192	0
TAP	88	288	0
XHO	89	0	0	192
XHO	89	0	7	192
HLD	90	0	7	192
TAP	91	0	7
TAP	91	96	7
TAP	91	192	0
TAP	91	192	7
HLD	92	0	0	192
TAP	93	0	0
TAP	93	96	0
TAP	93	192	0
TAP	93	192	7
TAP	94	0	1
TAP	94	96	1
TAP	94	192	2
TAP	94	288	2
TAP	95	0	3
TAP	95	96	3
TAP	95	192	4
TAP	95	288	4
TAP	96	0	5
TAP	96	96	5
TAP	96	192	6
TAP	96	288	6
XHO	97	0	0	192
XHO	97	0	7	192
TAP	98	0	0
TAP	98	96	0
TAP	98	192	0
TAP	99	0	7
TAP	99	96	7
TAP	99	192	7
XTP	100	0	0
XTP	100	0	7
XHO	100	96	0	288
XHO	100	96	7	288
XST	102	0	0
SI_	102	0	0	96	288	3
XST	102	0	7
SI_	102	0	7	96	288	4
TAP	104	0	4
TAP	104	192	4
TAP	105	0	3
TAP	105	192	3
TAP	106	0	2
TAP	106	192	2
TAP	107	0	1
BRK	107	192	1
XTP	108	0	0
TAP	108	192	0
XTP	109	0	7
TAP	109	192	7
XTP	110	0	0
XTP	110	96	0
XTP	110	192	7
XHO	110	288	7	432

T_REC_TAP	125
T_REC_BRK	2
T_REC_XTP	12
T_REC_HLD	5
T_REC_XHO	21
T_REC_STR	3
T_REC_BST	0
T_REC_XST	2
T_REC_TTP	16
T_REC_THO	2
T_REC_SLD	5
T_REC_ALL	193
T_NUM_TAP	158
T_NUM_BRK	2
T_NUM_HLD	28
T_NUM_SLD	5
T_NUM_ALL	193
T_JUDGE_TAP	160
T_JUDGE_HLD	209
T_JUDGE_SLD	5
T_JUDGE_ALL	374
TTM_EACHPAIRS	22
TTM_SCR_TAP	79000
TTM_SCR_BRK	5200
TTM_SCR_HLD	28000
TTM_SCR_SLD	7500
TTM_SCR_ALL	119700
TTM_SCR_S	115950
TTM_SCR_SS	119500
TTM_RAT_ACV	10016

