VERSION	0.00.00	1.03.00
FES_MODE	0
BPM_DEF	130.000	130.000	130.000	130.000
MET_DEF	4	4
RESOLUTION	384
CLK_DEF	378
COMPATIBLE_CODE	MA2

BPM	0	0	130.000
MET	0	0	4	4

THO	1	0	0	1152	C	0	M1
TTP	1	0	1	B	0	M1
TTP	1	0	2	B	0	M1
TTP	1	0	6	E	0	M1
TTP	2	0	5	B	0	M1
TTP	2	0	6	B	0	M1
TTP	2	0	6	E	0	M1
HLD	3	0	7	288
STR	4	0	7
SCL	4	0	7	96	144	4
THO	5	0	0	1152	C	0	M1
TTP	5	0	2	E	0	M1
TTP	5	0	5	B	0	M1
TTP	5	0	6	B	0	M1
TTP	6	0	1	B	0	M1
TTP	6	0	2	B	0	M1
TTP	6	0	2	E	0	M1
HLD	7	0	0	288
STR	8	0	0
SCR	8	0	0	96	144	3
THO	9	0	0	1152	C	0	M1
TTP	9	0	1	B	0	M1
TTP	9	0	2	B	0	M1
TTP	9	0	6	E	0	M1
TTP	10	0	5	B	0	M1
TTP	10	0	6	B	0	M1
TTP	10	0	6	E	0	M1
HLD	11	0	7	288
STR	12	0	7
SSR	12	0	7	96	144	3
XTP	12	288	0
HLD	13	0	3	48
HLD	13	0	4	48
HLD	13	96	2	48
HLD	13	96	4	48
HLD	13	192	1	48
HLD	13	192	4	48
HLD	13	288	0	48
HLD	13	288	4	48
TAP	14	0	3
TAP	14	0	4
TAP	14	48	4
TAP	14	96	3
TAP	14	96	5
TAP	14	144	5
TAP	14	192	3
TAP	14	192	6
TAP	14	240	6
TAP	14	288	3
TAP	14	288	7
TTP	15	0	0	B	0	M1
THO	15	0	0	384	C	1	M1
TTP	15	0	3	B	0	M1
TTP	15	0	4	B	0	M1
TTP	15	0	7	B	0	M1
TTP	16	0	2	B	0	M1
TTP	16	0	2	E	0	M1
TTP	16	0	5	B	0	M1
TTP	16	0	6	E	0	M1
BRK	16	288	1
BST	16	288	6
SI_	16	288	6	96	48	4
STR	17	0	6
SI_	17	0	6	96	48	2
TAP	17	48	3
STR	17	96	6
SI_	17	96	6	96	48	4
TAP	17	144	3
STR	17	192	6
SI_	17	192	6	96	48	2
TAP	17	240	3
TAP	17	288	6
TAP	17	336	3
TAP	18	0	2
TAP	18	0	6
TAP	18	48	1
TAP	18	48	5
STR	18	96	2
SI_	18	96	2	96	48	7
STR	18	96	6
SI_	18	96	6	96	48	3
TAP	18	144	3
TAP	18	144	7
TAP	18	192	2
TAP	18	192	6
XST	18	288	1
SI_	18	288	1	96	48	3
XTP	18	288	5
STR	19	0	1
SI_	19	0	1	96	48	5
TAP	19	48	4
STR	19	96	1
SI_	19	96	1	96	48	3
TAP	19	144	4
STR	19	192	1
SI_	19	192	1	96	48	5
TAP	19	240	4
TAP	19	288	1
TAP	19	336	4
HLD	20	0	1	96
TAP	20	0	5
TAP	20	48	7
HLD	20	96	6	48
TAP	20	144	7
TAP	20	192	0
TAP	20	192	5
XTP	20	288	3
XST	20	288	7
SI_	20	288	7	96	48	5
STR	21	0	7
SI_	21	0	7	96	48	2
TAP	21	48	3
STR	21	96	7
SI_	21	96	7	96	48	5
TAP	21	144	3
STR	21	192	7
SI_	21	192	7	96	48	2
TAP	21	240	3
TAP	21	288	7
TAP	21	336	3
TAP	22	0	2
TAP	22	0	6
TAP	22	48	1
TAP	22	48	5
STR	22	96	2
SI_	22	96	2	96	48	7
STR	22	96	6
SI_	22	96	6	96	48	3
TAP	22	144	3
TAP	22	144	7
TAP	22	192	2
TAP	22	192	6
XST	22	288	0
SI_	22	288	0	96	48	2
XTP	22	288	4
STR	23	0	0
SI_	23	0	0	96	48	5
TAP	23	48	4
TAP	23	96	0
TAP	23	144	4
TAP	23	192	0
TAP	23	192	5
TAP	23	240	1
TAP	23	288	2
STR	23	288	7
SCR	23	288	7	96	192	6
TAP	23	336	6
XHO	24	0	5	192
BRK	24	288	2
BRK	24	288	6
TAP	25	0	4
TAP	25	0	5
TAP	25	48	6
TAP	25	96	2
TAP	25	96	4
TAP	25	144	1
HLD	25	192	2	72
TAP	25	192	3
TAP	25	264	4
TAP	25	336	1
TAP	25	336	5
TAP	26	0	2
TAP	26	0	3
TAP	26	48	1
TAP	26	96	3
TAP	26	96	5
TAP	26	144	6
TAP	26	192	4
HLD	26	192	5	72
TAP	26	264	3
TAP	26	336	2
TAP	26	336	6
TAP	27	0	4
TAP	27	0	5
TAP	27	48	6
TAP	27	96	4
TAP	27	96	5
TAP	27	144	6
TAP	27	192	3
TAP	27	216	4
XTP	27	264	1
XTP	27	264	5
TAP	28	0	2
TAP	28	0	3
TAP	28	48	1
TAP	28	96	2
TAP	28	96	3
TAP	28	144	1
TAP	28	192	4
TAP	28	216	3
XTP	28	264	0
XTP	28	264	4
TAP	29	0	2
TAP	29	0	3
TAP	29	48	1
TAP	29	96	3
TAP	29	96	5
TAP	29	144	6
TAP	29	192	4
HLD	29	192	5	72
TAP	29	264	3
TAP	29	336	2
TAP	29	336	6
TAP	30	0	4
TAP	30	0	5
TAP	30	48	6
TAP	30	96	2
TAP	30	96	4
TAP	30	144	1
HLD	30	192	2	72
TAP	30	192	3
TAP	30	264	4
TAP	30	336	1
TAP	30	336	5
TAP	31	0	2
TAP	31	0	3
TAP	31	48	1
TAP	31	96	2
TAP	31	96	3
TAP	31	144	1
TAP	31	192	4
TAP	31	216	3
XTP	31	264	2
XTP	31	264	6
TAP	32	0	6
TAP	32	0	7
TAP	32	48	5
TAP	32	96	0
TAP	32	96	7
TAP	32	144	2
TAP	32	192	7
TAP	32	216	0
BRK	32	264	1
BRK	32	264	5
STR	33	0	1
SI_	33	0	1	96	48	4
TAP	33	0	7
TAP	33	48	6
TAP	33	96	5
TAP	33	144	6
HLD	33	192	4	72
TAP	33	192	5
TAP	33	264	6
TAP	33	336	3
TAP	33	336	7
TAP	34	0	0
STR	34	0	6
SI_	34	0	6	96	48	3
TAP	34	48	1
TAP	34	96	2
TAP	34	144	1
TAP	34	192	2
HLD	34	192	3	72
TAP	34	264	1
TAP	34	336	0
TAP	34	336	4
TAP	35	0	2
TAP	35	0	3
TAP	35	48	0
TAP	35	96	2
TAP	35	96	3
TAP	35	144	0
TAP	35	192	4
TAP	35	216	3
XTP	35	264	2
XTP	35	264	6
TAP	36	0	4
TAP	36	0	5
TAP	36	48	7
TAP	36	96	4
TAP	36	96	5
TAP	36	144	7
TAP	36	192	3
TAP	36	216	4
XTP	36	264	3
XTP	36	264	7
TAP	37	0	0
STR	37	0	6
SI_	37	0	6	96	48	3
TAP	37	48	1
TAP	37	96	2
TAP	37	144	1
TAP	37	192	2
HLD	37	192	3	72
TAP	37	264	1
TAP	37	336	0
TAP	37	336	4
STR	38	0	1
SI_	38	0	1	96	48	4
TAP	38	0	7
TAP	38	48	6
TAP	38	96	5
TAP	38	144	6
HLD	38	192	4	72
TAP	38	192	5
TAP	38	264	6
TAP	38	336	3
TAP	38	336	7
TAP	39	0	4
TAP	39	0	5
TAP	39	48	7
TAP	39	96	4
TAP	39	96	5
TAP	39	144	7
TAP	39	192	3
TAP	39	216	4
XTP	39	264	1
XTP	39	264	5
TAP	40	0	1
TAP	40	0	7
TAP	40	48	3
TAP	40	48	4
TAP	40	96	0
TAP	40	96	6
TAP	40	144	3
TAP	40	144	4
TAP	40	192	1
TAP	40	216	0
BRK	40	264	2
BRK	40	264	6
STR	41	0	3
SCL	41	0	3	96	192	7
TAP	41	0	4
TAP	42	0	5
STR	42	0	7
SCR	42	0	7	96	192	3
TAP	43	0	3
STR	43	0	4
SCR	43	0	4	96	192	0
STR	44	0	0
SCL	44	0	0	96	192	4
TAP	44	0	2
STR	45	0	3
SI_	45	0	3	96	192	0
TAP	45	0	4
TAP	46	0	3
STR	46	0	4
SI_	46	0	4	96	192	7
STR	47	0	3
SI_	47	0	3	96	192	0
TAP	47	0	4
TAP	48	0	3
TAP	48	0	4
TAP	48	96	5
TAP	48	192	3
STR	48	192	4
SI_	48	192	4	96	48	1
SI_	48	192	4	96	48	7
HLD	49	0	0	48
HLD	49	0	7	48
HLD	49	96	0	48
HLD	49	96	5	48
TAP	49	192	0
TAP	49	192	4
TAP	49	264	0
TAP	49	264	4
TAP	49	336	0
TAP	49	336	4
HLD	50	0	0	48
HLD	50	0	7	48
HLD	50	96	2	48
HLD	50	96	7	48
TAP	50	192	3
TAP	50	192	7
TAP	50	264	3
TAP	50	264	7
TAP	50	336	3
TAP	50	336	7
HLD	51	0	3	48
HLD	51	0	4	48
HLD	51	96	1	48
HLD	51	96	4	48
TAP	51	192	0
TAP	51	192	4
TAP	51	264	0
TAP	51	264	4
TAP	51	336	0
TAP	51	336	4
HLD	52	0	3	48
HLD	52	0	4	48
HLD	52	96	3	48
HLD	52	96	6	48
STR	52	192	3
SF_	52	192	3	96	48	7
TAP	52	192	7
TAP	53	0	3
TAP	53	0	4
TAP	53	48	2
TAP	53	48	4
TAP	53	96	1
TAP	53	96	4
TAP	53	144	0
TAP	53	144	4
TAP	53	192	3
TAP	53	192	4
TAP	53	240	2
TAP	53	240	4
TAP	53	288	1
TAP	53	288	4
TAP	53	336	0
TAP	53	336	4
TAP	54	0	3
TAP	54	0	4
TAP	54	48	3
TAP	54	48	5
TAP	54	96	3
TAP	54	96	6
TAP	54	144	3
TAP	54	144	7
TAP	54	192	3
TAP	54	192	4
TAP	54	240	3
TAP	54	240	5
TAP	54	288	3
TAP	54	288	6
TAP	54	336	3
TAP	54	336	7
TAP	55	0	1
TAP	55	24	0
TAP	55	48	2
TAP	55	72	7
TAP	55	96	3
TAP	55	120	6
TAP	55	144	4
TAP	55	168	5
TAP	55	192	3
TAP	55	216	4
TAP	55	240	2
TAP	55	264	5
TAP	55	288	1
TAP	55	312	6
TAP	55	336	0
TAP	55	360	7
TAP	56	0	0
TAP	56	0	7
TAP	56	48	1
TAP	56	48	5
STR	56	96	2
SI_	56	96	2	96	48	7
STR	56	96	6
SI_	56	96	6	96	48	3
TAP	56	144	3
TAP	56	144	7
TAP	56	192	2
TAP	56	192	6
BST	56	288	1
SCR	56	288	1	96	48	3
BRK	56	288	5
STR	57	0	1
SI_	57	0	1	96	48	5
TAP	57	48	7
STR	57	96	1
SCR	57	96	1	96	48	3
TAP	57	144	3
STR	57	192	1
SI_	57	192	1	96	48	5
TAP	57	240	7
TAP	57	288	1
TAP	57	336	3
TAP	58	0	1
TAP	58	0	5
TAP	58	48	2
TAP	58	48	6
STR	58	96	1
SI_	58	96	1	96	48	4
STR	58	96	5
SI_	58	96	5	96	48	0
TAP	58	144	0
TAP	58	144	4
TAP	58	192	1
TAP	58	192	5
BRK	58	288	2
BST	58	288	6
SCL	58	288	6	96	48	4
STR	59	0	6
SI_	59	0	6	96	48	2
TAP	59	48	0
STR	59	96	6
SCL	59	96	6	96	48	4
TAP	59	144	4
STR	59	192	6
SI_	59	192	6	96	48	2
TAP	59	240	0
TAP	59	288	6
TAP	59	336	4
TAP	60	0	2
HLD	60	0	5	96
TAP	60	48	0
HLD	60	96	3	48
TAP	60	144	0
TAP	60	192	2
TAP	60	192	6
BST	60	288	0
SCR	60	288	0	96	48	2
BRK	60	288	4
STR	61	0	0
SI_	61	0	0	96	48	4
TAP	61	48	6
STR	61	96	0
SCR	61	96	0	96	48	2
TAP	61	144	3
STR	61	192	0
SI_	61	192	0	96	48	4
TAP	61	240	7
TAP	61	288	0
TAP	61	336	3
TAP	62	0	1
TAP	62	0	5
TAP	62	48	2
TAP	62	48	6
STR	62	96	1
SI_	62	96	1	96	48	4
STR	62	96	5
SI_	62	96	5	96	48	0
TAP	62	144	0
TAP	62	144	4
TAP	62	192	1
TAP	62	192	5
BRK	62	288	3
BST	62	288	7
SCL	62	288	7	96	48	5
STR	63	0	7
SI_	63	0	7	96	48	3
TAP	63	48	1
STR	63	96	7
SCL	63	96	7	96	48	5
TAP	63	144	4
STR	63	192	7
SI_	63	192	7	96	48	3
TAP	63	240	0
TAP	63	288	7
TAP	63	336	4
TAP	64	0	2
HLD	64	0	5	96
TAP	64	48	0
HLD	64	96	3	48
TAP	64	144	0
TAP	64	192	2
TAP	64	192	6
BRK	64	288	1
BST	64	288	5
SI_	64	288	5	96	48	7
STR	65	0	2
SI_	65	0	2	96	48	0
TAP	65	0	5
TAP	65	48	3
TAP	65	96	2
STR	65	96	5
SI_	65	96	5	96	48	7
TAP	65	144	4
STR	65	192	2
SI_	65	192	2	96	48	0
TAP	65	192	5
TAP	65	240	3
TAP	65	288	2
TAP	65	288	5
TAP	65	336	4
TAP	66	0	1
TAP	66	0	5
TAP	66	48	2
TAP	66	48	6
STR	66	96	1
SI_	66	96	1	96	48	4
STR	66	96	5
SI_	66	96	5	96	48	0
TAP	66	144	0
TAP	66	144	4
TAP	66	192	1
TAP	66	192	5
BST	66	288	2
SI_	66	288	2	96	48	7
BRK	66	288	6
TAP	67	0	2
STR	67	0	5
SI_	67	0	5	96	48	0
TAP	67	48	4
STR	67	96	2
SI_	67	96	2	96	48	7
TAP	67	96	5
TAP	67	144	3
TAP	67	192	2
STR	67	192	5
SI_	67	192	5	96	48	0
TAP	67	240	4
TAP	67	288	2
TAP	67	288	5
TAP	67	336	3
TAP	68	0	2
HLD	68	0	5	96
TAP	68	48	0
HLD	68	96	3	48
TAP	68	144	0
TAP	68	192	2
TAP	68	192	6
BST	68	288	0
SI_	68	288	0	96	48	3
BRK	68	288	4
STR	69	0	0
SI_	69	0	0	96	48	5
TAP	69	0	6
TAP	69	48	7
STR	69	96	0
SI_	69	96	0	96	48	3
TAP	69	96	2
TAP	69	144	1
STR	69	192	0
SI_	69	192	0	96	48	5
TAP	69	192	6
TAP	69	240	7
TAP	69	288	0
TAP	69	288	2
TAP	69	336	1
TAP	70	0	0
HLD	70	0	6	48
TAP	70	48	4
HLD	70	96	2	48
TAP	70	96	7
TAP	70	144	3
TAP	70	192	1
TAP	70	192	5
BRK	70	288	3
BST	70	288	7
SI_	70	288	7	96	48	4
TAP	71	0	1
STR	71	0	7
SI_	71	0	7	96	48	2
TAP	71	48	0
TAP	71	96	5
STR	71	96	7
SI_	71	96	7	96	48	4
TAP	71	144	6
TAP	71	192	1
TAP	71	192	7
TAP	71	240	0
TAP	71	288	0
TAP	71	288	7
TAP	71	336	1
TAP	71	336	6
TAP	72	0	2
TAP	72	32	2
TAP	72	48	3
TAP	72	80	3
TAP	72	96	4
TAP	72	128	4
TAP	72	144	5
TAP	72	176	5
TAP	72	192	6
TAP	72	224	6
STR	72	240	7
SF_	72	240	7	96	24	3
TAP	72	272	7
BRK	72	336	7

T_REC_TAP	393
T_REC_BRK	16
T_REC_XTP	16
T_REC_HLD	45
T_REC_XHO	1
T_REC_STR	63
T_REC_BST	9
T_REC_XST	3
T_REC_TTP	26
T_REC_THO	4
T_REC_SLD	76
T_REC_ALL	652
T_NUM_TAP	501
T_NUM_BRK	25
T_NUM_HLD	50
T_NUM_SLD	76
T_NUM_ALL	652
T_JUDGE_TAP	526
T_JUDGE_HLD	156
T_JUDGE_SLD	76
T_JUDGE_ALL	758
TTM_EACHPAIRS	178
TTM_SCR_TAP	250500
TTM_SCR_BRK	65000
TTM_SCR_HLD	50000
TTM_SCR_SLD	114000
TTM_SCR_ALL	479500
TTM_SCR_S	462700
TTM_SCR_SS	477000
TTM_RAT_ACV	10052

