VERSION	0.00.00	1.03.00
FES_MODE	0
BPM_DEF	130.000	130.000	130.000	130.000
MET_DEF	4	4
RESOLUTION	384
CLK_DEF	384
COMPATIBLE_CODE	MA2

BPM	0	0	130.000
MET	0	0	4	4

HLD	1	0	5	192
THO	1	192	0	1152	C	0	M1
TTP	2	192	7	B	0	M1
TTP	3	192	6	B	0	M1
TTP	4	192	5	B	0	M1
HLD	5	0	2	192
THO	5	192	0	1152	C	0	M1
TTP	6	192	0	B	0	M1
TTP	7	192	1	B	0	M1
TTP	8	192	2	B	0	M1
HLD	9	0	0	768
TAP	9	0	7
TAP	9	192	6
TAP	10	0	5
TAP	10	192	4
HLD	11	0	4	576
TAP	11	192	0
TAP	12	0	1
TAP	12	192	2
XTP	12	288	3
TAP	13	0	5
TAP	13	96	3
TAP	13	96	4
TAP	13	192	2
TAP	13	288	3
TAP	13	288	4
TAP	14	0	5
TAP	14	48	5
TAP	14	96	3
TAP	14	144	3
TAP	14	192	4
TAP	14	240	4
TAP	14	288	2
TAP	14	336	2
TAP	15	0	6
TAP	15	48	6
TAP	15	96	1
TAP	15	144	1
XTP	15	192	7
XTP	15	216	0
XTP	15	240	7
XTP	15	264	0
XTP	15	288	7
HLD	16	0	1	192
HLD	16	0	6	192
BRK	16	288	3
BRK	16	288	4
STR	17	0	0
SI_	17	0	0	96	48	2
STR	17	0	7
SI_	17	0	7	96	48	3
HLD	17	192	2	48
HLD	17	192	3	48
HLD	17	288	0	48
HLD	17	288	1	48
HLD	18	0	2	48
HLD	18	0	3	48
HLD	18	96	0	48
HLD	18	96	1	48
TAP	18	192	2
HLD	18	192	3	96
BRK	18	288	0
STR	19	0	0
SI_	19	0	0	96	48	4
STR	19	0	7
SI_	19	0	7	96	48	5
HLD	19	192	4	48
HLD	19	192	5	48
HLD	19	288	6	48
HLD	19	288	7	48
HLD	20	0	4	48
HLD	20	0	5	48
HLD	20	96	6	48
HLD	20	96	7	48
HLD	20	192	4	96
TAP	20	192	5
BRK	20	288	7
STR	21	0	0
SI_	21	0	0	96	48	2
STR	21	0	7
SI_	21	0	7	96	48	3
HLD	21	192	2	48
HLD	21	192	3	48
HLD	21	288	0	48
HLD	21	288	1	48
HLD	22	0	2	48
HLD	22	0	3	48
HLD	22	96	0	48
HLD	22	96	1	48
TAP	22	192	2
HLD	22	192	3	96
BRK	22	288	0
STR	23	0	0
SI_	23	0	0	96	48	3
STR	23	0	7
SI_	23	0	7	96	48	4
HLD	23	192	2	48
HLD	23	192	5	48
HLD	23	288	1	48
HLD	23	288	6	48
TAP	24	0	0
TAP	24	0	7
TAP	24	96	2
STR	24	96	5
SCL	24	96	5	96	96	2
BRK	24	288	0
HLD	25	0	1	288
STR	25	96	3
SI_	25	96	3	96	96	0
HLD	26	0	6	288
STR	26	96	7
SI_	26	96	7	96	96	4
TAP	27	0	4
TAP	27	0	5
TAP	27	48	5
TAP	27	96	4
TAP	27	96	5
TAP	27	144	5
XTP	27	192	3
XTP	27	192	6
XTP	27	264	3
XTP	27	264	6
TAP	28	0	2
TAP	28	0	3
TAP	28	48	2
TAP	28	96	2
TAP	28	96	3
TAP	28	144	2
XTP	28	192	1
XTP	28	192	4
XTP	28	264	1
XTP	28	264	4
HLD	29	0	5	288
STR	29	96	3
SI_	29	96	3	96	96	7
HLD	30	0	1	288
STR	30	96	7
SI_	30	96	7	96	96	3
TAP	31	0	0
TAP	31	0	1
TAP	31	48	1
TAP	31	96	0
TAP	31	96	1
TAP	31	144	1
XTP	31	192	2
XTP	31	192	7
XTP	31	264	2
XTP	31	264	7
TAP	32	0	6
TAP	32	0	7
TAP	32	48	6
TAP	32	96	6
TAP	32	96	7
TAP	32	144	6
TAP	32	192	0
TAP	32	192	5
BRK	32	264	1
BRK	32	264	6
TAP	33	0	0
TAP	33	0	1
TAP	33	48	0
TAP	33	48	1
TAP	33	96	0
STR	33	96	1
SXL	33	96	1	96	96	3
TAP	33	192	7
TAP	34	0	2
TAP	34	0	3
TAP	34	48	2
TAP	34	48	3
STR	34	96	2
SXR	34	96	2	96	96	0
TAP	34	96	3
TAP	34	192	4
TAP	35	0	0
TAP	35	0	7
TAP	35	48	1
TAP	35	96	0
TAP	35	96	7
TAP	35	144	6
XTP	35	192	0
XTP	35	192	7
XTP	35	264	0
XTP	35	264	7
TAP	36	0	3
TAP	36	0	4
TAP	36	48	5
TAP	36	96	3
TAP	36	96	4
TAP	36	144	2
XTP	36	192	3
XTP	36	192	4
XTP	36	264	3
XTP	36	264	4
TAP	37	0	4
TAP	37	0	6
TAP	37	48	4
TAP	37	48	6
STR	37	96	4
SUL	37	96	4	96	96	7
TAP	37	96	6
TAP	37	192	7
TAP	38	0	5
TAP	38	0	7
TAP	38	48	5
TAP	38	48	7
TAP	38	96	5
STR	38	96	7
SUR	38	96	7	96	96	4
TAP	38	192	4
TAP	39	0	4
TAP	39	0	5
TAP	39	48	3
TAP	39	96	4
TAP	39	96	5
TAP	39	144	6
XTP	39	192	4
XTP	39	192	5
XTP	39	264	4
XTP	39	264	5
TAP	40	0	2
TAP	40	0	3
TAP	40	48	4
TAP	40	96	2
TAP	40	96	3
TAP	40	144	1
XTP	40	192	2
XTP	40	192	3
XTP	40	264	2
XTP	40	264	3
BST	41	0	0
SCR	41	0	0	96	576	7
BRK	41	0	7
TTP	41	192	0	C	0	M1
TTP	42	192	0	C	0	M1
TAP	43	0	0
STR	43	0	7
SCL	43	0	7	96	576	0
TTP	43	192	0	C	0	M1
TTP	44	192	0	C	0	M1
TAP	45	0	0
STR	45	0	7
SI_	45	0	7	96	192	4
TTP	45	192	2	B	0	M1
STR	46	0	3
SI_	46	0	3	96	192	0
TAP	46	0	4
TTP	46	192	6	B	0	M1
TAP	47	0	2
STR	47	0	5
SI_	47	0	5	96	192	2
TTP	47	192	0	C	0	M1
STR	48	0	1
SI_	48	0	1	96	192	6
TAP	48	0	6
TTP	48	192	0	E	0	M1
TAP	49	0	3
TAP	49	0	4
TAP	49	96	4
TAP	49	96	5
TAP	49	192	4
TAP	49	192	6
TAP	49	288	3
TAP	49	288	4
TAP	50	0	3
TAP	50	0	4
TAP	50	96	2
TAP	50	96	3
TAP	50	192	1
TAP	50	192	3
TAP	50	288	3
TAP	50	288	4
TAP	51	0	4
HLD	51	0	5	96
TAP	51	96	6
HLD	51	192	2	96
TAP	51	192	3
TAP	51	288	1
TAP	52	0	1
TAP	52	0	6
TAP	52	96	2
TAP	52	96	5
TAP	52	192	3
TAP	52	192	4
TTP	52	288	0	C	0	M1
TTP	52	288	2	B	0	M1
TTP	52	288	5	B	0	M1
TAP	53	0	0
TAP	53	48	0
TAP	53	96	1
TAP	53	144	1
TAP	53	192	2
TAP	53	240	2
TAP	53	288	3
TAP	53	288	4
TAP	54	0	7
TAP	54	48	7
TAP	54	96	6
TAP	54	144	6
TAP	54	192	5
TAP	54	240	5
TAP	54	288	3
TAP	54	288	4
TAP	55	0	2
TAP	55	0	5
TAP	55	48	2
TAP	55	48	5
TAP	55	96	1
TAP	55	96	6
TAP	55	144	1
TAP	55	144	6
XTP	55	192	7
XTP	55	216	0
XTP	55	240	7
XTP	55	264	0
XTP	55	288	7
HLD	56	0	1	192
HLD	56	0	6	192
BRK	56	288	3
BRK	56	288	4
STR	57	0	2
SI_	57	0	2	96	48	0
STR	57	0	7
SI_	57	0	7	96	48	3
HLD	57	192	2	48
HLD	57	192	3	48
HLD	57	288	0	48
HLD	57	288	7	48
HLD	58	0	4	48
HLD	58	0	5	48
HLD	58	96	0	48
HLD	58	96	7	48
TAP	58	192	2
HLD	58	192	3	96
TTP	58	288	0	C	1	M1
STR	59	0	0
SI_	59	0	0	96	48	4
STR	59	0	5
SI_	59	0	5	96	48	7
HLD	59	192	4	48
HLD	59	192	5	48
HLD	59	288	0	48
HLD	59	288	7	48
HLD	60	0	2	48
HLD	60	0	3	48
HLD	60	96	0	48
HLD	60	96	7	48
HLD	60	192	4	96
TAP	60	192	5
TTP	60	288	0	C	1	M1
STR	61	0	2
SI_	61	0	2	96	48	0
STR	61	0	7
SI_	61	0	7	96	48	3
HLD	61	192	2	48
HLD	61	192	3	48
HLD	61	288	0	48
HLD	61	288	7	48
HLD	62	0	4	48
HLD	62	0	5	48
HLD	62	96	0	48
HLD	62	96	7	48
TAP	62	192	2
HLD	62	192	3	96
TTP	62	288	0	C	1	M1
STR	63	0	0
SI_	63	0	0	96	48	3
STR	63	0	4
SI_	63	0	4	96	48	7
HLD	63	192	2	48
HLD	63	192	6	48
HLD	63	288	3	48
HLD	63	288	7	48
TAP	64	0	1
TAP	64	0	5
STR	64	96	2
SLR	64	96	2	96	96	0
TAP	64	96	6
BRK	64	288	7
STR	65	0	2
SI_	65	0	2	96	48	7
STR	65	0	6
SI_	65	0	6	96	48	3
HLD	65	192	0	48
HLD	65	192	6	48
HLD	65	288	2	48
HLD	65	288	3	48
HLD	66	0	0	48
HLD	66	0	1	48
HLD	66	96	5	48
HLD	66	96	6	48
HLD	66	192	0	96
TAP	66	192	7
BRK	66	288	3
STR	67	0	1
SI_	67	0	1	96	48	4
STR	67	0	5
SI_	67	0	5	96	48	0
HLD	67	192	1	48
HLD	67	192	7	48
HLD	67	288	4	48
HLD	67	288	5	48
HLD	68	0	6	48
HLD	68	0	7	48
HLD	68	96	1	48
HLD	68	96	2	48
TAP	68	192	0
HLD	68	192	7	96
BRK	68	288	4
STR	69	0	2
SI_	69	0	2	96	48	7
STR	69	0	6
SI_	69	0	6	96	48	3
HLD	69	192	0	48
HLD	69	192	6	48
HLD	69	288	2	48
HLD	69	288	3	48
HLD	70	0	0	48
HLD	70	0	1	48
HLD	70	96	5	48
HLD	70	96	6	48
TAP	70	192	0
HLD	70	192	7	96
BRK	70	288	4
STR	71	0	2
SI_	71	0	2	96	48	5
STR	71	0	6
SI_	71	0	6	96	48	1
HLD	71	192	0	48
HLD	71	192	7	48
HLD	71	288	3	48
HLD	71	288	4	48
THO	72	0	0	336	C	1	M1

T_REC_TAP	169
T_REC_BRK	15
T_REC_XTP	39
T_REC_HLD	107
T_REC_XHO	0
T_REC_STR	39
T_REC_BST	1
T_REC_XST	0
T_REC_TTP	20
T_REC_THO	3
T_REC_SLD	40
T_REC_ALL	433
T_NUM_TAP	267
T_NUM_BRK	16
T_NUM_HLD	110
T_NUM_SLD	40
T_NUM_ALL	433
T_JUDGE_TAP	283
T_JUDGE_HLD	237
T_JUDGE_SLD	40
T_JUDGE_ALL	560
TTM_EACHPAIRS	143
TTM_SCR_TAP	133500
TTM_SCR_BRK	41600
TTM_SCR_HLD	110000
TTM_SCR_SLD	60000
TTM_SCR_ALL	345100
TTM_SCR_S	333200
TTM_SCR_SS	343500
TTM_RAT_ACV	10046

