VERSION	0.00.00	1.03.00
FES_MODE	0
BPM_DEF	130.000	130.000	130.000	130.000
MET_DEF	4	4
RESOLUTION	384
CLK_DEF	384
COMPATIBLE_CODE	MA2

BPM	0	0	130.000
MET	0	0	4	4

STR	1	0	4
SI_	1	0	4	96	288	7
TAP	2	192	0
STR	3	0	0
SI_	3	0	0	96	288	3
TAP	4	192	4
HLD	5	0	4	192
HLD	5	0	5	192
HLD	6	0	2	192
HLD	6	0	3	192
HLD	7	0	3	192
HLD	7	0	4	192
TAP	8	0	3
TAP	8	0	4
TAP	8	192	2
TAP	8	192	5
STR	9	0	3
SCL	9	0	3	96	288	0
TAP	10	192	7
STR	11	0	7
SCL	11	0	7	96	288	4
TAP	12	192	2
TAP	12	192	3
TAP	13	0	1
TAP	13	192	0
TAP	13	192	1
TAP	14	0	6
TAP	14	192	6
TAP	14	192	7
HLD	15	0	0	192
HLD	15	0	7	192
TAP	16	0	1
TAP	16	0	6
TAP	16	192	2
TAP	16	192	5
BRK	16	288	2
BRK	16	288	5
TAP	17	0	2
TAP	17	96	2
TAP	17	192	2
TAP	17	192	3
TAP	18	0	1
TAP	18	96	1
TAP	18	192	0
TAP	18	192	1
TAP	19	0	6
TAP	19	96	6
TAP	19	192	6
TAP	19	192	7
TAP	20	0	5
TAP	20	96	5
XTP	20	192	4
XTP	20	192	6
TAP	21	0	5
TAP	21	96	5
TAP	21	192	4
TAP	21	192	5
TAP	22	0	6
TAP	22	96	6
TAP	22	192	6
TAP	22	192	7
TAP	23	0	0
TAP	23	96	0
TAP	23	192	0
TAP	23	192	7
TAP	24	0	1
TAP	24	0	6
XTP	24	192	2
XTP	24	192	5
TAP	25	0	5
TAP	25	96	5
TAP	25	192	4
TAP	26	0	2
TAP	26	96	2
TAP	26	192	3
TAP	27	0	4
TAP	27	0	5
TAP	27	192	2
TAP	27	192	3
TAP	28	0	1
TAP	28	0	4
TAP	28	96	1
TAP	28	96	4
TAP	28	192	1
TAP	28	192	4
HLD	29	0	2	96
HLD	29	0	3	96
TAP	29	192	2
TAP	29	192	3
HLD	30	0	4	96
HLD	30	0	5	96
TAP	30	192	4
TAP	30	192	5
HLD	31	0	3	96
HLD	31	0	4	96
TAP	31	192	3
TAP	31	192	4
TAP	32	0	2
TAP	32	0	5
XTP	32	192	1
XTP	32	192	6
TAP	33	0	0
TAP	33	96	0
TAP	33	192	1
TAP	33	288	1
TAP	34	0	2
TAP	34	96	2
TAP	34	192	2
TAP	34	192	3
TAP	35	0	4
TAP	35	0	5
TAP	35	96	4
TAP	35	96	5
TAP	35	192	4
TAP	35	192	5
TAP	36	0	6
TAP	36	0	7
TAP	36	96	6
TAP	36	96	7
XTP	36	192	6
XTP	36	192	7
TAP	37	0	6
TAP	37	96	6
TAP	37	192	5
TAP	37	288	5
TAP	38	0	4
TAP	38	96	4
TAP	38	192	3
TAP	38	192	4
TAP	39	0	2
TAP	39	0	3
TAP	39	96	2
TAP	39	96	3
TAP	39	192	2
TAP	39	192	3
TAP	40	0	3
TAP	40	0	4
TAP	40	96	3
TAP	40	96	4
BRK	40	192	2
BRK	40	192	5
TTP	41	0	3	E	0	L1
TTP	41	192	3	B	0	L1
TTP	42	0	4	B	0	L1
TTP	42	192	5	E	0	L1
TTP	43	0	5	B	0	L1
TTP	43	192	6	B	0	L1
TTP	44	0	7	E	0	L1
TTP	44	192	0	C	0	L1
TTP	45	0	1	B	0	L1
TTP	45	0	1	E	0	L1
TTP	45	192	5	B	0	L1
TTP	45	192	6	B	0	L1
TTP	46	0	2	B	0	L1
TTP	46	0	3	E	0	L1
TTP	46	192	4	B	0	L1
TTP	46	192	5	E	0	L1
TTP	47	0	2	B	0	L1
TTP	47	0	3	B	0	L1
TTP	47	192	4	B	0	L1
TTP	47	192	5	B	0	L1
THO	48	0	0	192	C	0	L1
TTP	49	0	2	E	0	L1
TTP	49	192	3	B	0	L1
TTP	49	192	3	E	0	L1
TTP	50	0	6	E	0	L1
TTP	50	192	4	B	0	L1
TTP	50	192	5	E	0	L1
TTP	51	0	3	E	0	L1
TTP	51	192	1	B	0	L1
TTP	51	192	2	E	0	L1
TTP	52	0	5	E	0	L1
TTP	52	192	6	B	0	L1
TTP	52	192	6	E	0	L1
TTP	53	0	3	B	0	L1
TTP	53	96	2	B	0	L1
TTP	53	192	1	B	0	L1
TTP	54	0	4	B	0	L1
TTP	54	96	5	B	0	L1
TTP	54	192	6	B	0	L1
THO	55	0	0	192	C	0	L1
TAP	56	0	7
TAP	56	96	6
TAP	56	192	5
BRK	56	288	3
BRK	56	288	4
TAP	57	0	2
TAP	57	96	2
TAP	57	192	2
TAP	57	192	3
TAP	57	288	2
TAP	57	288	3
TAP	58	0	1
TAP	58	96	1
TAP	58	192	0
TAP	58	192	1
TAP	59	0	7
TAP	59	96	7
TAP	59	192	0
TAP	59	192	7
TAP	59	288	0
TAP	59	288	7
TAP	60	0	6
TAP	60	96	6
XTP	60	192	6
XTP	60	192	7
TAP	61	0	5
TAP	61	96	5
TAP	61	192	4
TAP	61	192	5
TAP	61	288	4
TAP	61	288	5
TAP	62	0	5
TAP	62	96	4
XTP	62	192	3
XTP	62	192	4
TAP	63	0	2
TAP	63	0	3
TAP	63	96	2
TAP	63	96	3
TAP	63	192	3
TAP	63	192	4
TAP	63	288	3
TAP	63	288	4
HLD	64	0	2	96
HLD	64	0	5	96
BRK	64	192	2
BRK	64	192	5
TAP	65	0	1
TAP	65	96	0
TAP	65	96	1
TAP	65	192	6
TAP	65	288	6
TAP	65	288	7
TAP	66	0	1
TAP	66	96	0
TAP	66	96	1
XTP	66	192	2
XTP	66	192	7
TAP	67	0	2
TAP	67	96	2
TAP	67	96	3
TAP	67	192	5
TAP	67	288	4
TAP	67	288	5
TAP	68	0	2
TAP	68	96	2
TAP	68	96	3
XTP	68	192	1
XTP	68	192	4
TAP	69	0	2
TAP	69	96	2
TAP	69	192	1
TAP	69	288	0
TAP	70	0	0
TAP	70	0	7
TAP	70	96	1
TAP	70	96	6
XTP	70	192	2
XTP	70	192	5
HLD	71	0	3	96
HLD	71	0	4	96
HLD	71	192	2	96
HLD	71	192	5	96
THO	72	0	0	336	C	0	L1

T_REC_TAP	170
T_REC_BRK	8
T_REC_XTP	18
T_REC_HLD	20
T_REC_XHO	0
T_REC_STR	4
T_REC_BST	0
T_REC_XST	0
T_REC_TTP	38
T_REC_THO	3
T_REC_SLD	4
T_REC_ALL	265
T_NUM_TAP	230
T_NUM_BRK	8
T_NUM_HLD	23
T_NUM_SLD	4
T_NUM_ALL	265
T_JUDGE_TAP	238
T_JUDGE_HLD	71
T_JUDGE_SLD	4
T_JUDGE_ALL	313
TTM_EACHPAIRS	77
TTM_SCR_TAP	115000
TTM_SCR_BRK	20800
TTM_SCR_HLD	23000
TTM_SCR_SLD	6000
TTM_SCR_ALL	164800
TTM_SCR_S	159100
TTM_SCR_SS	164000
TTM_RAT_ACV	10048

