VERSION	0.00.00	1.03.00
FES_MODE	0
BPM_DEF	130.000	130.000	130.000	130.000
MET_DEF	4	4
RESOLUTION	384
CLK_DEF	384
COMPATIBLE_CODE	MA2

BPM	0	0	130.000
MET	0	0	4	4

TAP	9	0	0
TAP	10	0	1
TAP	11	0	2
TAP	12	0	3
TAP	13	0	4
TAP	13	192	4
TAP	14	0	5
TAP	14	192	5
TAP	15	0	6
TAP	15	192	6
HLD	16	0	7	192
TAP	17	0	7
TAP	17	192	7
TAP	18	0	7
TAP	19	0	6
TAP	19	192	6
TAP	20	0	6
TAP	21	0	5
TAP	21	192	5
TAP	22	0	5
TAP	23	0	4
TAP	23	192	4
HLD	24	0	3	192
HLD	24	0	4	192
TAP	25	0	3
TAP	25	192	3
TAP	26	0	4
TAP	26	192	4
TAP	27	0	3
TAP	27	96	3
TAP	27	192	3
XTP	28	0	3
XTP	28	0	4
XTP	28	96	3
XTP	28	96	4
XTP	28	192	3
XTP	28	192	4
TAP	29	0	4
TAP	29	192	4
TAP	30	0	3
TAP	30	192	3
TAP	31	0	4
TAP	31	96	4
TAP	31	192	4
XTP	32	0	3
XTP	32	0	4
XTP	32	96	3
XTP	32	96	4
BRK	32	192	3
BRK	32	192	4
TAP	33	0	3
TAP	33	192	3
TAP	34	0	2
TAP	34	192	2
TAP	35	0	1
TAP	35	96	1
TAP	35	192	1
XTP	36	0	0
XTP	36	0	7
XTP	36	96	0
XTP	36	96	7
XTP	36	192	0
XTP	36	192	7
TAP	37	0	7
TAP	37	192	7
TAP	38	0	6
TAP	38	192	6
TAP	39	0	5
TAP	39	96	5
TAP	39	192	5
XTP	40	0	3
XTP	40	0	4
XTP	40	96	3
XTP	40	96	4
BRK	40	192	3
BRK	40	192	4
STR	41	0	2
SI_	41	0	2	96	288	5
TAP	43	0	6
TAP	43	192	6
HLD	44	0	7	192
STR	45	0	6
SI_	45	0	6	96	288	1
TAP	47	0	0
TAP	47	192	0
HLD	48	0	0	192
HLD	48	0	7	192
TTP	49	0	1	B	0	L1
TTP	50	0	2	B	0	L1
TTP	51	0	3	B	0	L1
TTP	52	0	4	B	0	L1
TTP	53	0	5	B	0	L1
TTP	53	0	6	B	0	L1
TTP	54	0	1	B	0	L1
TTP	54	0	2	B	0	L1
THO	55	0	0	384	C	1	L1
TAP	57	0	7
TAP	57	96	7
TAP	57	192	7
TAP	58	0	6
TAP	58	96	6
TAP	58	192	6
TAP	58	192	7
TAP	59	0	5
TAP	59	96	5
TAP	59	192	5
TAP	60	0	4
TAP	60	96	3
TAP	60	192	4
TAP	61	0	3
TAP	61	96	3
TAP	61	192	3
TAP	62	0	2
TAP	62	96	2
TAP	62	192	2
TAP	62	192	3
TAP	63	0	1
TAP	63	96	1
TAP	63	192	1
TAP	64	0	0
TAP	64	96	7
BRK	64	192	0
TAP	65	0	0
TAP	65	96	0
TAP	65	192	1
TAP	65	288	1
TAP	66	0	2
TAP	66	96	2
TAP	66	192	3
TAP	66	192	4
TAP	67	0	4
TAP	67	96	4
TAP	67	192	5
TAP	67	288	5
TAP	68	0	6
TAP	68	96	6
TAP	68	192	0
TAP	68	192	7
TAP	69	0	7
TAP	69	96	7
TAP	69	192	6
TAP	69	288	6
TAP	70	0	5
TAP	70	96	5
TAP	70	192	3
TAP	70	192	4
TAP	71	0	3
TAP	71	96	3
TAP	71	192	2
TAP	71	288	2
XHO	72	0	0	336
XHO	72	0	1	336

T_REC_TAP	106
T_REC_BRK	5
T_REC_XTP	20
T_REC_HLD	6
T_REC_XHO	2
T_REC_STR	2
T_REC_BST	0
T_REC_XST	0
T_REC_TTP	8
T_REC_THO	1
T_REC_SLD	2
T_REC_ALL	152
T_NUM_TAP	136
T_NUM_BRK	5
T_NUM_HLD	9
T_NUM_SLD	2
T_NUM_ALL	152
T_JUDGE_TAP	141
T_JUDGE_HLD	46
T_JUDGE_SLD	2
T_JUDGE_ALL	189
TTM_EACHPAIRS	20
TTM_SCR_TAP	68000
TTM_SCR_BRK	13000
TTM_SCR_HLD	9000
TTM_SCR_SLD	3000
TTM_SCR_ALL	93000
TTM_SCR_S	89750
TTM_SCR_SS	92500
TTM_RAT_ACV	10054

