VERSION	0.00.00	1.03.00
FES_MODE	0
BPM_DEF	194.000	194.000	194.000	194.000
MET_DEF	4	4
RESOLUTION	384
CLK_DEF	384
COMPATIBLE_CODE	MA2

BPM	0	0	194.000
MET	0	0	4	4

STR	1	0	1
SI_	1	0	1	96	48	4
XTP	1	96	1
HLD	1	96	5	96
TAP	1	192	3
TAP	1	264	2
TAP	1	264	4
TAP	1	336	1
TAP	1	336	3
TAP	2	48	7
HLD	2	96	7	96
TAP	2	192	1
TAP	2	264	2
TAP	2	264	4
TAP	2	336	3
TAP	2	336	5
STR	3	0	6
SI_	3	0	6	96	48	3
HLD	3	96	2	96
XTP	3	96	6
TAP	3	192	4
TAP	3	264	3
TAP	3	264	5
TAP	3	336	4
TAP	3	336	6
TAP	4	48	0
HLD	4	96	0	96
TAP	4	192	6
TAP	4	264	3
TAP	4	264	5
TAP	4	336	2
TAP	4	336	4
STR	5	0	1
SI_	5	0	1	96	48	4
XTP	5	96	1
HLD	5	96	5	96
TAP	5	192	3
TAP	5	264	2
TAP	5	264	4
TAP	5	336	1
TAP	5	336	3
TAP	6	48	7
HLD	6	96	7	96
TAP	6	192	1
TAP	6	264	2
TAP	6	264	4
TAP	6	336	3
TAP	6	336	5
STR	7	0	6
SI_	7	0	6	96	48	3
HLD	7	96	2	96
XTP	7	96	6
TAP	7	192	4
TAP	7	264	3
TAP	7	264	5
TAP	7	336	4
TAP	7	336	6
TAP	8	48	0
HLD	8	96	0	96
TAP	8	192	7
XTP	8	288	3
XTP	8	288	4
TAP	9	0	3
TAP	9	0	5
TAP	9	96	2
TAP	9	96	4
HLD	9	192	1	72
HLD	9	264	2	72
TAP	9	336	3
TAP	10	48	4
TAP	10	96	3
TAP	10	96	5
HLD	10	192	6	72
HLD	10	264	5	72
TAP	10	336	4
TAP	11	0	2
TAP	11	0	4
TAP	11	96	3
TAP	11	96	5
HLD	11	192	6	72
HLD	11	264	5	72
TAP	11	336	4
TAP	12	48	3
TAP	12	96	2
TAP	12	96	4
HLD	12	192	2	72
HLD	12	264	1	72
TAP	12	336	0
TAP	13	0	0
TAP	13	0	7
TAP	13	96	3
TAP	13	96	5
HLD	13	192	6	72
HLD	13	264	5	72
TAP	13	336	4
TAP	14	48	3
TAP	14	96	2
TAP	14	96	4
HLD	14	192	1	72
HLD	14	264	2	72
TAP	14	336	3
TAP	15	0	3
TAP	15	0	5
TAP	15	96	2
TAP	15	96	4
HLD	15	192	1	72
HLD	15	264	2	72
TAP	15	336	3
TAP	16	48	4
TAP	16	96	3
TAP	16	96	5
HLD	16	192	5	72
HLD	16	264	6	72
TAP	16	336	7
TAP	17	0	0
STR	17	0	7
SCL	17	0	7	96	48	4
TAP	17	96	2
HLD	17	192	1	72
HLD	17	264	2	72
TAP	17	336	3
TAP	18	48	4
TAP	18	96	3
TAP	18	96	5
HLD	18	192	6	72
HLD	18	264	5	72
TAP	18	336	4
STR	19	0	2
SCL	19	0	2	96	48	7
TAP	19	0	4
TAP	19	96	5
HLD	19	192	6	72
HLD	19	264	5	72
TAP	19	336	4
TAP	20	48	3
TAP	20	96	2
TAP	20	96	4
HLD	20	192	2	72
HLD	20	264	1	72
TAP	20	336	0
STR	21	0	0
SCR	21	0	0	96	48	3
TAP	21	0	7
TAP	21	96	5
HLD	21	192	6	72
HLD	21	264	5	72
TAP	21	336	4
TAP	22	48	3
TAP	22	96	2
TAP	22	96	4
HLD	22	192	1	72
HLD	22	264	2	72
TAP	22	336	3
TAP	23	0	3
STR	23	0	5
SCR	23	0	5	96	48	0
TAP	23	96	2
HLD	23	192	1	72
HLD	23	264	2	72
TAP	23	336	3
TAP	24	48	7
TAP	24	96	0
TAP	24	96	7
TAP	24	192	2
TAP	24	192	3
TAP	24	288	3
TAP	24	288	4
STR	25	0	4
SCL	25	0	4	96	96	0
TAP	25	0	5
TAP	25	96	5
STR	25	192	3
SCR	25	192	3	96	96	7
TAP	25	288	2
STR	26	0	4
SCL	26	0	4	96	96	0
TAP	26	96	5
STR	26	192	3
SCR	26	192	3	96	96	7
TAP	26	288	1
HLD	26	336	1	96
TAP	27	48	7
TAP	27	96	7
TAP	27	192	3
TAP	27	192	5
STR	27	288	2
SXL	27	288	2	96	192	0
TAP	28	0	6
TAP	28	96	6
TAP	28	192	7
TAP	28	288	7
TAP	29	0	2
STR	29	0	3
SCR	29	0	3	96	96	7
TAP	29	96	2
STR	29	192	4
SCL	29	192	4	96	96	0
TAP	29	288	5
STR	30	0	3
SCR	30	0	3	96	96	7
TAP	30	96	2
HLD	30	192	4	96
TAP	30	288	5
TAP	30	336	5
TAP	31	48	2
TAP	31	48	4
TAP	31	96	2
TAP	31	96	4
TAP	31	192	3
TAP	31	192	6
TAP	31	240	3
TAP	31	240	6
TAP	31	336	1
TAP	31	336	5
TAP	32	48	7
TAP	32	72	0
TAP	32	96	7
BRK	32	192	1
BRK	32	192	6
STR	32	288	1
SI_	32	288	1	96	48	4
STR	32	288	5
SI_	32	288	5	96	48	0
XTP	33	0	1
XTP	33	0	5
TAP	33	96	2
TAP	33	96	6
HLD	33	192	0	96
TAP	33	288	3
TAP	33	336	3
TAP	34	0	2
TAP	34	48	5
TAP	34	96	0
STR	34	144	7
SLL	34	144	7	96	96	3
STR	34	240	3
SLL	34	240	3	96	96	7
TAP	34	336	7
TAP	35	48	3
STR	35	96	3
SI_	35	96	3	96	48	7
STR	35	192	5
SI_	35	192	5	96	48	2
STR	35	288	1
SLR	35	288	1	96	96	0
TAP	36	0	6
TAP	36	96	7
TAP	36	144	7
STR	36	240	0
SCR	36	240	0	96	96	5
TAP	36	240	5
TTP	36	336	0	C	1	M1
HLD	37	96	7	96
TTP	37	192	1	E	0	M1
TTP	37	208	1	B	0	M1
TTP	37	224	2	B	0	M1
TTP	37	240	3	E	0	M1
TTP	37	288	7	E	0	M1
TTP	37	304	6	B	0	M1
TTP	37	320	5	B	0	M1
TTP	37	336	5	E	0	M1
HLD	38	0	0	96
TAP	38	96	3
HLD	38	144	3	96
STR	38	240	5
SLL	38	240	5	96	144	0
HLD	38	336	6	144
STR	39	192	1
SI_	39	192	1	96	48	3
STR	39	192	6
SI_	39	192	6	96	48	4
STR	40	0	0
SI_	40	0	0	96	48	3
STR	40	0	7
SI_	40	0	7	96	48	4
BRK	40	192	1
BRK	40	192	6
STR	40	240	1
SI_	40	240	1	96	48	4
STR	40	240	6
SI_	40	240	6	96	48	3
XTP	40	336	1
XTP	40	336	6
TAP	41	48	0
TAP	41	48	7
TAP	41	96	0
TAP	41	96	7
HLD	41	192	6	96
TAP	41	288	4
TAP	41	336	4
TAP	42	0	5
TAP	42	48	2
TAP	42	96	7
STR	42	144	0
SLR	42	144	0	96	96	4
STR	42	240	4
SLR	42	240	4	96	96	0
TAP	42	336	0
TAP	43	48	4
STR	43	96	4
SI_	43	96	4	96	48	0
STR	43	192	2
SI_	43	192	2	96	48	5
STR	43	288	6
SLL	43	288	6	96	96	7
TAP	44	0	1
TAP	44	96	0
TAP	44	144	0
TAP	44	240	2
STR	44	240	7
SCL	44	240	7	96	96	2
TAP	44	336	1
TAP	45	48	0
HLD	45	96	0	288
TAP	45	192	3
TAP	45	288	3
STR	46	0	4
SI_	46	0	4	96	48	7
STR	46	96	0
SI_	46	96	0	96	48	3
STR	46	192	7
SI_	46	192	7	96	48	4
TAP	46	288	3
TAP	47	0	3
TAP	47	96	3
TAP	47	192	3
TAP	47	288	3
TAP	48	0	3
TAP	48	96	3
TAP	48	192	3
TAP	48	288	3
STR	48	336	4
SCR	48	336	4	96	240	7
TAP	49	0	3
TAP	49	96	3
TAP	49	192	3
TAP	49	288	3
TAP	50	0	3
TAP	50	0	6
TAP	50	96	3
TAP	50	96	5
TAP	50	192	3
TAP	50	192	4
TAP	50	288	3
TAP	50	288	4
TAP	51	0	3
TAP	51	96	3
TAP	51	192	3
TAP	51	288	3
TAP	52	0	3
TAP	52	96	3
TAP	52	192	3
TAP	52	288	3
STR	52	336	4
SI_	52	336	4	96	240	0
TAP	53	0	3
TAP	53	96	3
TAP	53	192	3
TAP	53	288	3
TAP	54	0	3
TAP	54	0	7
TAP	54	96	3
TAP	54	96	6
TAP	54	192	3
TAP	54	192	5
TAP	54	288	3
TAP	54	288	4
STR	55	0	2
SI_	55	0	2	96	48	4
TAP	55	96	7
TAP	55	144	7
STR	55	192	6
SI_	55	192	6	96	48	3
TAP	55	288	1
TAP	55	336	1
STR	56	0	2
SI_	56	0	2	96	48	4
TAP	56	96	7
TAP	56	144	7
STR	56	192	6
SI_	56	192	6	96	48	3
TAP	56	288	1
TAP	56	336	1
STR	57	0	2
SI_	57	0	2	96	48	4
TAP	57	96	7
TAP	57	144	7
STR	57	192	6
SI_	57	192	6	96	48	3
TAP	57	288	1
TAP	57	336	1
HLD	58	0	2	96
HLD	58	96	0	96
HLD	58	192	7	96
TAP	58	288	5
STR	59	0	5
SI_	59	0	5	96	48	3
TAP	59	96	0
TAP	59	144	0
STR	59	192	1
SI_	59	192	1	96	48	4
TAP	59	288	6
TAP	59	336	6
STR	60	0	5
SI_	60	0	5	96	48	3
TAP	60	96	0
TAP	60	144	0
STR	60	192	1
SI_	60	192	1	96	48	4
TAP	60	288	6
TAP	60	336	6
STR	61	0	5
SI_	61	0	5	96	48	3
TAP	61	96	0
TAP	61	144	0
STR	61	192	1
SI_	61	192	1	96	48	4
STR	61	288	5
SUL	61	288	5	96	288	3
HLD	63	0	0	3072
TTP	63	336	4	E	0	M1
TTP	63	352	5	E	0	M1
TTP	63	368	6	E	0	M1
TTP	64	336	4	E	0	M1
TTP	64	352	3	E	0	M1
TTP	64	368	2	E	0	M1
TTP	65	336	4	E	0	M1
TTP	65	352	5	E	0	M1
TTP	65	368	6	E	0	M1
TTP	66	336	6	E	0	M1
TTP	66	352	5	E	0	M1
TTP	66	368	4	E	0	M1
TTP	67	336	2	E	0	M1
TTP	67	352	3	E	0	M1
TTP	67	368	4	E	0	M1
TTP	68	336	7	E	0	M1
TTP	68	352	6	E	0	M1
TTP	68	368	5	E	0	M1
TTP	69	336	4	E	0	M1
TTP	69	352	0	C	0	M1
TTP	69	368	0	E	0	M1
TAP	71	0	4
TAP	71	96	4
TAP	71	192	4
TAP	71	288	4
STR	72	0	3
SI_	72	0	3	96	288	0
TAP	72	0	4
TAP	72	96	4
TAP	72	192	4
TAP	72	288	4
TAP	73	0	4
TAP	73	96	4
TAP	73	192	4
TAP	73	288	4
HLD	74	0	0	288
TAP	74	0	4
TAP	74	96	4
TAP	74	192	4
TAP	74	288	4
STR	75	0	0
SCR	75	0	0	96	192	3
TAP	75	0	4
TAP	75	96	4
TAP	75	192	4
TAP	75	288	4
TAP	76	0	3
TAP	76	0	4
STR	76	288	2
SI_	76	288	2	96	48	7
STR	76	288	6
SI_	76	288	6	96	48	3
XTP	77	0	2
XTP	77	0	6
TAP	77	96	1
TAP	77	96	5
HLD	77	192	7	96
TAP	77	288	4
TAP	77	336	4
TAP	78	0	5
TAP	78	48	2
TAP	78	96	7
STR	78	144	0
SCR	78	144	0	96	96	4
STR	78	240	4
SCR	78	240	4	96	96	0
TAP	78	336	0
TAP	79	48	4
STR	79	96	4
SI_	79	96	4	96	48	0
STR	79	192	1
SI_	79	192	1	96	48	6
STR	79	288	5
SLR	79	288	5	96	96	4
TAP	80	0	1
TAP	80	96	0
TAP	80	144	0
TAP	80	240	2
STR	80	240	7
SCL	80	240	7	96	96	2
TTP	80	336	0	C	1	M1
STR	81	96	0
SI_	81	96	0	96	48	4
XTP	81	192	0
STR	81	192	6
SI_	81	192	6	96	48	2
BRK	81	288	3
XTP	81	288	6
HLD	82	0	7	96
TAP	82	96	4
HLD	82	144	4	96
STR	82	240	2
SLR	82	240	2	96	144	7
HLD	82	336	1	144
STR	83	192	1
SI_	83	192	1	96	48	3
STR	83	192	6
SI_	83	192	6	96	48	4
STR	84	0	0
SI_	84	0	0	96	48	3
STR	84	0	7
SI_	84	0	7	96	48	4
BRK	84	192	1
BRK	84	192	6
STR	84	240	1
SI_	84	240	1	96	48	4
STR	84	240	6
SI_	84	240	6	96	48	3
XTP	84	336	1
XTP	84	336	6
BRK	85	48	0
BRK	85	48	7
BRK	85	96	0
BRK	85	96	7
HLD	85	192	1	96
TAP	85	288	3
TAP	85	336	3
TAP	86	0	2
TAP	86	48	5
TAP	86	96	0
STR	86	144	7
SCL	86	144	7	96	96	3
STR	86	240	3
SCL	86	240	3	96	96	7
TAP	86	336	7
TAP	87	48	3
STR	87	96	3
SI_	87	96	3	96	48	7
STR	87	192	5
SI_	87	192	5	96	48	2
STR	87	288	0
SXL	87	288	0	96	96	0
TAP	88	0	6
TAP	88	96	7
TAP	88	144	7
STR	88	240	0
SCR	88	240	0	96	96	5
TAP	88	240	5
TAP	88	336	6
TAP	89	48	7
HLD	89	96	7	192
TAP	89	192	4
STR	89	288	5
SCL	89	288	5	96	96	0
TAP	90	0	7
TAP	90	96	7
TAP	90	144	7
TAP	90	192	0
TAP	90	288	0
STR	90	336	0
SI_	90	336	0	96	48	3
TAP	91	48	7
HLD	91	96	7	96
BST	91	192	4
SCL	91	192	4	96	144	6
BRK	91	288	5
BRK	91	336	5
TAP	92	144	0
TAP	92	192	0
HLD	92	288	7	480
TTP	93	0	4	E	0	M1
TTP	93	96	6	E	0	M1
TTP	93	192	0	E	0	M1
TTP	93	288	2	E	0	M1
THO	94	0	0	192	C	0	M1
STR	95	0	6
SI_	95	0	6	96	48	3
HLD	95	96	2	96
XTP	95	96	6
TAP	95	192	4
TAP	95	264	3
TAP	95	264	5
TAP	95	336	4
TAP	95	336	6
TAP	96	48	0
HLD	96	96	0	96
TAP	96	192	4
TAP	96	264	3
TAP	96	264	5
TAP	96	336	2
TAP	96	336	4
STR	97	0	1
SI_	97	0	1	96	48	4
XTP	97	96	1
HLD	97	96	5	96
TAP	97	192	3
TAP	97	264	2
TAP	97	264	4
TAP	97	336	1
TAP	97	336	3
TAP	98	48	7
HLD	98	96	7	96
TAP	98	192	3
TAP	98	264	2
TAP	98	264	4
TAP	98	336	3
TAP	98	336	5
STR	99	0	6
SI_	99	0	6	96	48	3
HLD	99	96	2	96
XTP	99	96	6
TAP	99	192	4
TAP	99	264	3
TAP	99	264	5
TAP	99	336	4
TAP	99	336	6
TAP	100	48	0
HLD	100	96	0	96
TAP	100	192	4
TAP	100	264	3
TAP	100	264	5
TAP	100	336	2
TAP	100	336	4
STR	101	0	1
SI_	101	0	1	96	48	4
XTP	101	96	1
HLD	101	96	5	96
TAP	101	192	3
TAP	101	264	2
TAP	101	264	4
TAP	101	336	1
TAP	101	336	3
TAP	102	48	7
STR	102	96	7
SI_	102	96	7	96	48	4
STR	102	192	0
SI_	102	192	0	96	48	3
XTP	102	288	7
TAP	103	0	1
TAP	103	0	7
TAP	103	96	0
TAP	103	96	6
HLD	103	192	5	72
HLD	103	264	6	72
TAP	103	336	7
TAP	104	48	0
TAP	104	96	1
TAP	104	96	7
HLD	104	192	2	72
HLD	104	264	1	72
TAP	104	336	0
TAP	105	0	0
TAP	105	0	6
TAP	105	96	1
TAP	105	96	7
HLD	105	192	2	72
HLD	105	264	1	72
TAP	105	336	0
TAP	106	48	7
TAP	106	96	0
TAP	106	96	6
HLD	106	192	6	72
HLD	106	264	5	72
TAP	106	336	4
TAP	107	0	3
TAP	107	0	4
TAP	107	96	1
TAP	107	96	7
HLD	107	192	2	72
HLD	107	264	1	72
TAP	107	336	0
TAP	108	48	7
TAP	108	96	0
TAP	108	96	6
HLD	108	192	5	72
HLD	108	264	6	72
TAP	108	336	7
TAP	109	0	1
TAP	109	0	7
TAP	109	96	0
TAP	109	96	6
HLD	109	192	5	72
HLD	109	264	6	72
TAP	109	336	7
TAP	110	0	0
TAP	110	0	7
TAP	110	48	0
TAP	110	48	7
TAP	110	96	1
TAP	110	96	6
TAP	110	144	1
TAP	110	144	6
STR	110	240	0
SV_	110	240	0	96	48	3
STR	110	240	4
SV_	110	240	4	96	48	7
TTP	110	360	0	C	1	M1

T_REC_TAP	373
T_REC_BRK	13
T_REC_XTP	21
T_REC_HLD	81
T_REC_XHO	0
T_REC_STR	90
T_REC_BST	1
T_REC_XST	0
T_REC_TTP	36
T_REC_THO	1
T_REC_SLD	91
T_REC_ALL	707
T_NUM_TAP	520
T_NUM_BRK	14
T_NUM_HLD	82
T_NUM_SLD	91
T_NUM_ALL	707
T_JUDGE_TAP	534
T_JUDGE_HLD	248
T_JUDGE_SLD	91
T_JUDGE_ALL	873
TTM_EACHPAIRS	122
TTM_SCR_TAP	260000
TTM_SCR_BRK	36400
TTM_SCR_HLD	82000
TTM_SCR_SLD	136500
TTM_SCR_ALL	514900
TTM_SCR_S	498100
TTM_SCR_SS	513500
TTM_RAT_ACV	10027

