VERSION	0.00.00	1.03.00
FES_MODE	0
BPM_DEF	194.000	194.000	194.000	194.000
MET_DEF	4	4
RESOLUTION	384
CLK_DEF	384
COMPATIBLE_CODE	MA2

BPM	0	0	194.000
MET	0	0	4	4

TAP	1	0	3
TAP	1	0	5
TAP	1	96	2
TAP	1	192	3
TAP	1	192	5
TAP	1	288	2
TAP	2	0	2
TAP	2	0	4
TAP	2	96	5
XTP	2	192	4
XTP	2	192	6
TAP	3	0	2
TAP	3	0	4
TAP	3	96	5
TAP	3	192	2
TAP	3	192	4
TAP	3	288	5
TAP	4	0	3
TAP	4	0	5
TAP	4	96	2
TAP	4	96	3
XTP	4	192	1
XTP	4	192	4
TAP	5	0	4
TAP	5	0	5
TAP	5	96	6
TAP	5	192	4
TAP	5	192	5
TAP	5	288	6
TAP	6	0	3
TAP	6	0	5
TAP	6	96	2
XTP	6	192	1
XTP	6	192	3
TAP	6	288	0
TAP	7	0	0
TAP	7	0	1
TAP	7	96	7
TAP	7	192	0
TAP	7	192	1
TAP	7	288	7
TAP	8	0	0
TAP	8	0	7
TAP	8	96	0
TAP	8	96	7
BRK	8	192	1
BRK	8	192	6
HLD	9	0	5	288
TAP	9	96	4
TAP	9	192	4
TAP	9	288	4
HLD	10	0	1	288
TAP	10	96	3
TAP	10	192	3
TAP	10	288	3
HLD	11	0	6	288
TAP	11	96	4
TAP	11	192	4
TAP	11	288	4
TAP	12	0	3
TAP	12	0	5
TAP	12	96	2
TAP	12	96	6
TAP	12	288	3
TAP	12	288	4
HLD	13	0	2	288
TAP	13	96	3
TAP	13	192	3
TAP	13	288	3
HLD	14	0	6	288
TAP	14	96	4
TAP	14	192	4
TAP	14	288	4
HLD	15	0	1	192
TAP	15	96	0
TAP	15	192	0
TAP	15	288	7
TAP	16	0	7
XTP	16	96	1
XTP	16	96	6
TAP	16	288	0
TAP	16	288	7
HLD	17	0	2	384
TAP	17	96	3
TAP	17	192	3
TAP	17	288	4
HLD	18	0	6	384
TAP	18	96	4
TAP	18	192	4
TAP	18	288	3
HLD	19	0	1	192
TAP	19	96	3
TAP	19	192	3
TAP	19	288	4
TAP	20	0	4
XTP	20	96	3
XTP	20	96	6
TAP	20	288	7
HLD	21	0	1	288
TAP	21	96	0
TAP	21	192	0
TAP	21	288	0
HLD	22	0	6	288
TAP	22	96	7
TAP	22	192	7
TAP	22	288	7
HLD	23	0	1	96
TAP	23	96	0
HLD	23	192	7	96
TAP	23	288	0
TAP	24	0	0
TAP	24	96	1
TAP	24	96	6
TAP	24	288	3
TAP	24	288	4
TTP	25	0	6	E	0	M1
TTP	25	96	5	B	0	M1
TTP	25	192	4	B	0	M1
TTP	26	0	3	B	0	M1
TTP	26	96	2	B	0	M1
TTP	26	192	2	E	0	M1
TAP	27	0	7
TAP	27	48	7
TAP	27	96	0
TAP	27	192	5
TAP	27	288	4
TAP	28	0	3
TAP	28	0	4
TAP	28	96	3
TAP	28	96	4
XTP	28	192	2
XTP	28	192	5
TTP	29	0	2	E	0	M1
TTP	29	96	2	B	0	M1
TTP	29	192	3	B	0	M1
TTP	30	0	4	B	0	M1
TTP	30	96	5	B	0	M1
TTP	30	192	6	E	0	M1
XTP	31	0	0
XTP	31	0	7
XTP	31	48	0
XTP	31	48	7
TAP	31	144	3
TAP	31	144	5
TAP	31	192	3
TAP	31	192	5
TAP	31	288	2
TAP	31	288	4
TAP	31	336	2
HLD	31	336	4	144
TAP	32	48	3
TAP	32	96	3
XTP	32	192	1
XTP	32	192	6
BRK	32	288	7
TAP	33	0	0
HLD	33	0	6	96
TAP	33	96	4
HLD	33	192	1	96
TAP	33	192	7
TAP	33	288	3
TAP	34	0	6
TAP	34	0	7
TAP	34	96	0
TAP	34	96	1
TAP	34	144	0
TAP	34	144	1
TAP	34	240	2
TAP	34	240	7
XTP	34	336	3
XTP	34	336	6
TAP	35	48	0
TAP	35	96	0
TAP	35	192	0
TAP	35	192	6
TAP	35	288	2
TAP	35	288	3
TAP	36	0	0
TAP	36	0	1
TAP	36	96	2
TAP	36	96	6
TAP	36	144	2
TAP	36	144	6
TAP	36	240	7
TAP	36	336	0
HLD	36	336	6	144
TAP	37	48	7
TAP	37	96	7
HLD	37	192	2	96
TAP	37	288	0
HLD	38	0	5	96
TAP	38	96	7
TAP	38	144	7
HLD	38	240	1	96
XST	38	336	7
SCL	38	336	7	96	144	4
XST	39	192	3
SCL	39	192	3	96	96	0
XST	40	0	7
SI_	40	0	7	96	96	3
XTP	40	192	0
TAP	40	288	7
HLD	40	336	7	96
TAP	41	48	4
TAP	41	96	4
TAP	41	192	0
HLD	41	192	6	96
TAP	41	288	4
TAP	42	0	0
TAP	42	0	1
TAP	42	96	6
TAP	42	96	7
TAP	42	144	6
TAP	42	144	7
TAP	42	240	0
TAP	42	240	5
XTP	42	336	1
XTP	42	336	4
TAP	43	48	7
TAP	43	96	7
TAP	43	192	1
TAP	43	192	7
TAP	43	288	4
TAP	43	288	5
TAP	44	0	6
TAP	44	0	7
TAP	44	96	1
TAP	44	96	5
TAP	44	144	1
TAP	44	144	5
TAP	44	240	0
TAP	44	336	1
STR	44	336	7
SCL	44	336	7	96	144	2
TAP	45	288	0
STR	46	0	0
SI_	46	0	0	96	96	4
XTP	46	144	7
XTP	46	192	7
XHO	46	288	2	864
XTP	46	288	5
TTP	48	0	2	E	0	M1
TTP	48	192	4	E	0	M1
HLD	49	0	5	768
TTP	50	0	6	E	0	M1
TTP	50	192	4	E	0	M1
HLD	51	0	1	768
TTP	52	0	3	E	0	M1
TTP	52	192	4	E	0	M1
HLD	53	0	6	768
TTP	54	0	6	E	0	M1
TTP	54	192	4	E	0	M1
TAP	55	0	2
HLD	55	96	2	672
TAP	55	192	3
TAP	55	288	3
TAP	56	0	4
TAP	56	96	4
TAP	56	192	5
TAP	56	288	5
TAP	57	0	5
HLD	57	96	5	672
TAP	57	192	4
TAP	57	288	4
TAP	58	0	3
TAP	58	96	3
TAP	58	192	2
TAP	58	288	2
TAP	59	0	1
HLD	59	96	1	864
TAP	59	192	0
TAP	59	288	0
TAP	60	0	7
TAP	60	96	7
TAP	60	192	6
TAP	60	288	6
TAP	61	0	6
HLD	61	96	6	96
THO	62	0	0	384	C	0	M1
TTP	62	0	1	B	0	M1
TTP	62	0	2	B	0	M1
TTP	62	0	5	B	0	M1
TTP	62	0	6	B	0	M1
XHO	67	0	2	384
HLD	68	0	3	384
HLD	69	0	4	384
STR	70	0	5
SCL	70	0	5	96	144	2
TAP	71	0	5
TAP	71	96	5
TAP	71	192	5
TAP	71	288	5
TAP	72	0	4
TAP	72	96	4
TAP	72	192	4
TAP	72	288	4
TAP	73	0	3
TAP	73	96	3
TAP	73	192	3
TAP	73	288	3
TAP	74	0	2
TAP	74	96	2
TAP	74	192	2
TAP	74	288	2
TAP	75	0	1
TAP	75	96	1
TAP	75	192	0
TAP	75	288	0
XTP	76	0	1
XTP	76	0	6
BRK	76	288	7
TAP	77	0	0
TAP	77	0	6
TAP	77	96	4
TAP	77	96	5
TAP	77	192	1
TAP	77	192	7
TAP	77	288	2
TAP	77	288	3
TAP	78	0	6
TAP	78	0	7
TAP	78	96	3
TAP	78	96	4
TAP	78	144	3
TAP	78	144	4
TAP	78	240	0
TAP	78	240	1
XTP	78	336	2
XTP	78	336	7
TAP	79	48	0
TAP	79	96	0
TAP	79	192	0
TAP	79	192	6
TAP	79	288	2
TAP	79	288	3
TAP	80	0	0
TAP	80	0	1
TAP	80	96	2
TAP	80	96	6
TAP	80	144	2
TAP	80	144	6
TAP	80	240	3
TAP	80	240	4
TAP	80	336	0
HLD	80	336	6	144
TAP	81	48	7
TAP	81	96	7
HLD	81	192	2	96
TAP	81	192	3
TAP	81	288	0
TAP	82	0	4
HLD	82	0	5	96
TAP	82	96	7
TAP	82	144	7
HLD	82	240	1	96
TAP	82	240	3
XST	82	336	7
SCL	82	336	7	96	144	4
XST	83	192	3
SCL	83	192	3	96	96	0
XST	84	0	7
SUL	84	0	7	96	96	3
XTP	84	192	0
XTP	84	288	1
XTP	84	288	5
XTP	84	336	1
XTP	84	336	5
TAP	85	48	7
TAP	85	96	7
TAP	85	192	0
TAP	85	192	6
TAP	85	288	4
TAP	85	288	5
TAP	86	0	0
TAP	86	0	1
TAP	86	96	3
TAP	86	96	4
TAP	86	144	3
TAP	86	144	4
TAP	86	240	6
TAP	86	240	7
XTP	86	336	0
XTP	86	336	5
TAP	87	48	7
TAP	87	96	7
TAP	87	192	1
TAP	87	192	7
TAP	87	288	4
TAP	87	288	5
TAP	88	0	6
TAP	88	0	7
TAP	88	96	1
TAP	88	96	5
TAP	88	144	1
TAP	88	144	5
TAP	88	240	3
TAP	88	240	4
XTP	88	336	2
XST	88	336	6
SXR	88	336	6	96	288	2
XST	90	0	1
SXL	90	0	1	96	288	5
XST	91	0	6
SI_	91	0	6	96	96	3
XST	91	192	2
SCL	91	192	2	96	240	5
THO	93	0	0	384	C	0	M1
TTP	93	0	2	B	0	M1
TTP	93	0	5	B	0	M1
TAP	95	0	6
TAP	95	0	7
TAP	95	96	0
TAP	95	192	6
TAP	95	192	7
TAP	95	288	5
TAP	96	0	3
TAP	96	0	4
TAP	96	96	2
XTP	96	192	1
XTP	96	192	3
TAP	97	0	0
TAP	97	0	1
TAP	97	96	7
TAP	97	192	0
TAP	97	192	1
TAP	97	288	2
TAP	98	0	3
TAP	98	0	4
TAP	98	96	5
XTP	98	192	4
XTP	98	192	6
TAP	99	0	6
TAP	99	0	7
TAP	99	96	0
TAP	99	192	6
TAP	99	192	7
TAP	99	288	5
TAP	100	0	3
TAP	100	0	4
TAP	100	96	5
TAP	100	192	3
TAP	100	192	4
TAP	100	288	2
TAP	101	0	0
TAP	101	0	1
TAP	101	96	2
TAP	101	192	0
TAP	101	192	1
TAP	101	288	7
TAP	102	0	0
TAP	102	0	7
TAP	102	96	0
TAP	102	96	7
BRK	102	192	1
BRK	102	192	6
HLD	103	0	5	288
TAP	103	96	4
TAP	103	192	3
TAP	103	288	4
HLD	104	0	1	288
TAP	104	96	3
TAP	104	192	4
TAP	104	288	3
HLD	105	0	6	192
TAP	105	96	4
TAP	105	192	3
TAP	105	288	2
TAP	106	0	2
XTP	106	96	1
XTP	106	96	4
TAP	106	288	7
HLD	107	0	1	288
TAP	107	96	0
TAP	107	192	7
TAP	107	288	0
HLD	108	0	6	288
TAP	108	96	7
TAP	108	192	0
TAP	108	288	7
TAP	109	0	0
TAP	109	96	1
TAP	109	96	7
TAP	109	192	2
TAP	109	192	6
TAP	109	288	3
TAP	109	288	5
TAP	110	0	2
TAP	110	0	4
TAP	110	96	4
TAP	110	96	5
TAP	110	144	4
TAP	110	144	5
TAP	110	240	0
TAP	110	240	7
BRK	110	336	1
BRK	110	336	6

T_REC_TAP	348
T_REC_BRK	8
T_REC_XTP	44
T_REC_HLD	40
T_REC_XHO	2
T_REC_STR	3
T_REC_BST	0
T_REC_XST	10
T_REC_TTP	26
T_REC_THO	2
T_REC_SLD	13
T_REC_ALL	496
T_NUM_TAP	431
T_NUM_BRK	8
T_NUM_HLD	44
T_NUM_SLD	13
T_NUM_ALL	496
T_JUDGE_TAP	439
T_JUDGE_HLD	281
T_JUDGE_SLD	13
T_JUDGE_ALL	733
TTM_EACHPAIRS	124
TTM_SCR_TAP	215500
TTM_SCR_BRK	20800
TTM_SCR_HLD	44000
TTM_SCR_SLD	19500
TTM_SCR_ALL	299800
TTM_SCR_S	290050
TTM_SCR_SS	299000
TTM_RAT_ACV	10026

