VERSION	0.00.00	1.03.00
FES_MODE	0
BPM_DEF	194.000	194.000	194.000	194.000
MET_DEF	4	4
RESOLUTION	384
CLK_DEF	384
COMPATIBLE_CODE	MA2

BPM	0	0	194.000
MET	0	0	4	4

XTP	1	0	1
XTP	1	96	1
TAP	1	192	0
TAP	1	192	1
TAP	2	0	6
TAP	2	96	6
TAP	2	192	6
TAP	2	192	7
TAP	3	0	1
TAP	3	96	1
TAP	3	192	0
TAP	3	288	0
TAP	4	0	7
TAP	4	96	7
XTP	4	192	0
XTP	4	192	6
TAP	5	0	6
TAP	5	96	6
TAP	5	192	6
TAP	5	192	7
TAP	6	0	1
TAP	6	96	1
TAP	6	192	0
TAP	6	192	1
TAP	7	0	6
TAP	7	96	6
TAP	7	192	7
TAP	7	288	7
TAP	8	0	0
TAP	8	0	7
TAP	8	96	0
TAP	8	96	7
BRK	8	192	1
BRK	8	192	6
HLD	9	0	2	192
TAP	9	192	3
TAP	9	288	4
HLD	10	0	5	192
TAP	10	192	4
TAP	10	288	3
HLD	11	0	2	192
TAP	11	192	3
TAP	11	288	4
TAP	12	0	5
TAP	12	96	5
XTP	12	192	4
XTP	12	192	5
HLD	13	0	5	192
TAP	13	192	4
TAP	13	288	3
HLD	14	0	2	192
TAP	14	192	3
TAP	14	288	4
HLD	15	0	5	192
TAP	15	192	4
TAP	15	288	3
TAP	16	0	2
TAP	16	96	2
XTP	16	192	1
XTP	16	192	3
TAP	17	0	2
TAP	17	96	2
TAP	17	192	2
TAP	17	192	3
TAP	18	0	5
TAP	18	96	5
TAP	18	192	4
TAP	18	192	5
TAP	19	0	2
TAP	19	96	2
TAP	19	192	3
TAP	19	288	4
TAP	20	0	5
TAP	20	96	5
XTP	20	192	4
XTP	20	192	6
TAP	21	0	5
TAP	21	96	5
TAP	21	192	4
TAP	21	192	5
TAP	22	0	2
TAP	22	96	2
TAP	22	192	2
TAP	22	192	3
TAP	23	0	1
TAP	23	96	1
TAP	23	192	0
TAP	23	288	0
TAP	24	0	0
TAP	24	0	7
TAP	24	96	0
TAP	24	96	7
XTP	24	192	1
XTP	24	192	6
STR	25	0	7
SUL	25	0	7	96	336	2
XTP	26	192	1
STR	27	0	0
SUR	27	0	0	96	336	5
XTP	28	192	6
STR	29	0	7
SCL	29	0	7	96	384	3
XTP	30	192	2
XTP	31	0	0
XTP	31	0	1
XTP	31	192	6
XTP	31	192	7
XTP	32	0	0
XTP	32	0	7
XTP	32	96	0
XTP	32	96	7
BRK	32	192	1
BRK	32	192	6
TAP	33	0	1
TAP	33	96	0
XTP	33	192	6
XTP	33	192	7
TAP	34	0	6
TAP	34	96	7
XTP	34	192	0
XTP	34	192	1
TAP	35	0	2
TAP	35	96	2
TAP	35	192	3
TAP	35	288	3
TAP	36	0	4
TAP	36	96	4
XTP	36	192	3
XTP	36	192	5
TAP	37	0	2
TAP	37	96	2
XTP	37	192	2
XTP	37	192	3
TAP	38	0	5
TAP	38	96	5
XTP	38	192	4
XTP	38	192	5
TAP	39	0	3
TAP	39	96	3
STR	39	192	3
SI_	39	192	3	96	192	0
STR	39	192	4
SI_	39	192	4	96	192	7
BRK	40	192	1
BRK	40	192	6
TAP	41	0	6
TAP	41	96	7
XTP	41	192	0
XTP	41	192	1
TAP	42	0	1
TAP	42	96	0
XTP	42	192	6
XTP	42	192	7
TAP	43	0	5
TAP	43	96	5
TAP	43	192	4
TAP	43	288	4
TAP	44	0	3
TAP	44	96	3
XTP	44	192	2
XTP	44	192	4
HLD	45	0	1	192
TAP	45	192	0
XTP	46	0	2
XTP	46	0	7
TTP	47	0	1	B	0	L1
TTP	48	0	0	C	0	L1
TTP	49	0	4	B	0	L1
TTP	49	0	6	B	0	L1
TTP	51	0	6	B	0	L1
TTP	52	0	0	C	0	L1
TTP	53	0	1	B	0	L1
TTP	53	0	3	B	0	L1
TTP	55	0	4	E	0	L1
TTP	56	0	5	E	0	L1
TTP	57	0	6	E	0	L1
TTP	58	0	7	E	0	L1
TTP	59	0	0	E	0	L1
TTP	60	0	1	E	0	L1
THO	61	0	0	384	C	0	L1
HLD	63	0	2	768
HLD	65	0	3	768
HLD	67	0	4	768
TAP	69	0	5
TAP	70	0	3
TAP	70	0	4
XTP	70	192	3
XTP	70	192	4
TAP	71	0	5
TAP	71	96	5
TAP	71	192	5
TAP	72	0	4
TAP	72	96	4
TAP	72	192	4
TAP	73	0	3
TAP	73	96	3
TAP	73	192	3
TAP	74	0	2
TAP	74	96	2
TAP	74	192	2
HLD	75	0	3	384
HLD	75	0	4	384
TAP	77	0	1
TAP	77	96	1
XTP	77	192	0
XTP	77	192	1
XTP	77	288	0
XTP	77	288	1
TAP	78	0	7
TAP	78	96	7
XTP	78	192	0
XTP	78	192	6
TAP	79	0	5
TAP	79	96	5
TAP	79	192	4
TAP	79	288	4
TAP	80	0	3
TAP	80	96	3
XTP	80	192	2
XTP	80	192	4
TAP	81	0	5
TAP	81	96	5
XTP	81	192	4
XTP	81	192	5
TAP	82	0	2
TAP	82	96	2
XTP	82	192	2
XTP	82	192	3
TAP	83	0	4
TAP	83	96	4
STR	83	192	3
SI_	83	192	3	96	192	0
STR	83	192	4
SI_	83	192	4	96	192	7
BRK	84	192	1
BRK	84	192	6
XTP	85	0	6
XTP	85	96	6
XTP	85	192	6
XTP	85	192	7
XTP	85	288	6
XTP	85	288	7
TAP	86	0	0
TAP	86	96	0
XTP	86	192	1
XTP	86	192	7
TAP	87	0	2
TAP	87	96	2
TAP	87	192	3
TAP	87	288	3
TAP	88	0	4
TAP	88	96	4
XTP	88	192	3
XTP	88	192	5
HLD	89	0	2	192
TAP	89	192	3
HLD	90	0	5	192
TAP	90	192	4
TAP	91	0	3
TAP	91	0	4
STR	91	192	3
SCL	91	192	3	96	288	0
STR	91	192	4
SCR	91	192	4	96	288	7
HLD	93	0	1	384
HLD	93	0	6	384
TAP	95	0	0
TAP	95	96	0
TAP	95	192	1
TAP	95	288	1
TAP	96	0	2
TAP	96	96	2
XTP	96	192	2
XTP	96	192	3
TAP	97	0	4
TAP	97	96	4
TAP	97	192	5
TAP	97	288	5
TAP	98	0	6
TAP	98	96	6
XTP	98	192	6
XTP	98	192	7
TAP	99	0	7
TAP	99	96	7
TAP	99	192	6
TAP	99	288	6
TAP	100	0	5
TAP	100	96	5
XTP	100	192	3
XTP	100	192	4
XTP	100	288	3
XTP	100	288	4
TAP	101	0	2
TAP	101	96	2
TAP	101	192	1
XTP	101	288	0
XTP	101	288	7
XTP	102	0	1
XTP	102	0	6
TTP	103	0	2	E	0	L1
TTP	103	192	2	B	0	L1
TTP	104	0	3	B	0	L1
TTP	105	0	6	E	0	L1
TTP	105	192	5	B	0	L1
TTP	106	0	4	B	0	L1
TTP	107	0	3	E	0	L1
TTP	107	192	2	E	0	L1
TTP	108	0	1	E	0	L1
TTP	108	192	0	E	0	L1
TTP	109	0	7	E	0	L1
TTP	109	192	6	E	0	L1
THO	110	0	0	336	C	0	L1

T_REC_TAP	165
T_REC_BRK	8
T_REC_XTP	77
T_REC_HLD	16
T_REC_XHO	0
T_REC_STR	9
T_REC_BST	0
T_REC_XST	0
T_REC_TTP	26
T_REC_THO	2
T_REC_SLD	9
T_REC_ALL	312
T_NUM_TAP	277
T_NUM_BRK	8
T_NUM_HLD	18
T_NUM_SLD	9
T_NUM_ALL	312
T_JUDGE_TAP	285
T_JUDGE_HLD	131
T_JUDGE_SLD	9
T_JUDGE_ALL	425
TTM_EACHPAIRS	58
TTM_SCR_TAP	138500
TTM_SCR_BRK	20800
TTM_SCR_HLD	18000
TTM_SCR_SLD	13500
TTM_SCR_ALL	190800
TTM_SCR_S	184300
TTM_SCR_SS	190000
TTM_RAT_ACV	10042

