VERSION	0.00.00	1.03.00
FES_MODE	0
BPM_DEF	194.000	194.000	194.000	194.000
MET_DEF	4	4
RESOLUTION	384
CLK_DEF	384
COMPATIBLE_CODE	MA2

BPM	0	0	194.000
MET	0	0	4	4

TAP	9	0	4
TAP	10	0	4
TAP	11	0	5
TAP	11	192	5
TAP	12	0	5
TAP	13	0	6
TAP	14	0	6
TAP	15	0	7
TAP	15	192	7
TAP	16	0	7
TAP	17	0	0
TAP	18	0	0
TAP	19	0	1
TAP	19	192	1
TAP	20	0	1
TAP	21	0	2
TAP	22	0	2
TAP	23	0	3
TAP	23	192	3
TAP	24	0	3
TAP	24	0	4
TTP	25	0	5	B	0	L1
TTP	26	0	6	B	0	L1
TTP	27	0	7	B	0	L1
TTP	28	0	0	B	0	L1
TTP	29	0	1	B	0	L1
TTP	30	0	2	B	0	L1
THO	31	0	0	384	C	1	L1
TAP	33	0	7
TAP	33	192	7
TAP	34	0	7
TAP	34	96	7
TAP	34	192	7
TAP	35	0	6
TAP	35	96	6
TAP	35	192	6
XTP	36	0	6
XTP	36	0	7
TAP	37	0	5
TAP	37	192	5
TAP	38	0	4
TAP	38	96	4
TAP	38	192	4
HLD	39	0	3	192
HLD	39	0	4	192
TAP	40	0	3
TAP	40	0	4
BRK	40	192	2
BRK	40	192	5
TAP	41	0	3
TAP	41	192	3
TAP	42	0	3
TAP	42	96	3
TAP	42	192	3
TAP	43	0	2
TAP	43	96	2
TAP	43	192	2
XTP	44	0	2
XTP	44	0	3
HLD	45	0	1	192
HLD	46	0	0	192
STR	47	0	7
SI_	47	0	7	96	288	4
STR	49	0	0
SI_	49	0	0	96	288	3
STR	51	0	7
SI_	51	0	7	96	288	3
STR	53	0	0
SI_	53	0	0	96	288	4
TAP	55	0	7
TAP	56	0	0
TAP	57	0	1
TAP	58	0	2
TAP	59	0	3
TAP	60	0	4
TAP	61	0	5
TAP	62	0	6
HLD	63	0	7	768
TAP	66	0	7
HLD	67	0	0	768
TAP	70	0	0
TAP	71	0	7
TAP	72	0	6
TAP	73	0	5
TAP	74	0	4
HLD	75	0	3	384
HLD	75	0	4	384
TAP	77	0	3
TAP	77	192	3
TAP	78	0	3
TAP	78	96	3
TAP	78	192	3
TAP	79	0	2
TAP	79	96	2
TAP	79	192	2
XHO	80	0	2	192
XHO	80	0	3	192
TAP	81	0	1
TAP	81	192	1
TAP	82	0	0
TAP	82	96	0
TAP	82	192	0
TAP	83	0	0
TAP	83	0	7
TAP	83	192	0
TAP	83	192	7
TAP	84	0	0
TAP	84	0	7
BRK	84	192	1
BRK	84	192	6
TAP	85	0	7
TAP	85	192	7
TAP	86	0	7
TAP	86	96	7
TAP	86	192	7
TAP	87	0	6
TAP	87	96	6
TAP	87	192	6
XHO	88	0	6	192
XHO	88	0	7	192
TAP	89	0	5
TAP	89	192	5
TAP	90	0	4
TAP	90	192	4
STR	91	0	3
SI_	91	0	3	96	288	0
TAP	93	0	7
TAP	93	192	7
HLD	94	0	0	192
HLD	94	0	7	192
STR	95	0	0
SI_	95	0	0	96	288	4
TAP	97	0	5
TAP	97	192	5
TAP	98	0	6
TAP	98	96	6
TAP	98	192	6
STR	99	0	7
SI_	99	0	7	96	288	3
TAP	101	0	2
TAP	101	192	2
TAP	102	0	1
TAP	102	96	1
TAP	102	192	1
TAP	103	0	0
TAP	103	192	0
TAP	104	0	7
TAP	104	192	7
TAP	105	0	6
TAP	105	96	6
TAP	105	192	6
XTP	106	0	6
XTP	106	0	7
TAP	107	0	7
TAP	107	192	7
TAP	108	0	0
TAP	108	192	0
TAP	109	0	1
TAP	109	96	1
TAP	109	192	1
XHO	110	0	0	336
XHO	110	0	1	336

T_REC_TAP	115
T_REC_BRK	4
T_REC_XTP	6
T_REC_HLD	10
T_REC_XHO	6
T_REC_STR	7
T_REC_BST	0
T_REC_XST	0
T_REC_TTP	6
T_REC_THO	1
T_REC_SLD	7
T_REC_ALL	162
T_NUM_TAP	134
T_NUM_BRK	4
T_NUM_HLD	17
T_NUM_SLD	7
T_NUM_ALL	162
T_JUDGE_TAP	138
T_JUDGE_HLD	110
T_JUDGE_SLD	7
T_JUDGE_ALL	255
TTM_EACHPAIRS	16
TTM_SCR_TAP	67000
TTM_SCR_BRK	10400
TTM_SCR_HLD	17000
TTM_SCR_SLD	10500
TTM_SCR_ALL	104900
TTM_SCR_S	101400
TTM_SCR_SS	104500
TTM_RAT_ACV	10038

