VERSION	0.00.00	1.03.00
FES_MODE	0
BPM_DEF	177.000	177.000	177.000	177.000
MET_DEF	4	4
RESOLUTION	384
CLK_DEF	384
COMPATIBLE_CODE	MA2

BPM	0	0	177.000
MET	0	0	4	4

TAP	2	0	2
TAP	2	48	2
TAP	2	96	4
TAP	2	192	5
TAP	2	240	5
TAP	2	288	3
TAP	3	0	2
TAP	3	0	4
TAP	3	96	3
TAP	3	96	5
HLD	3	144	3	144
TAP	3	144	5
TAP	3	240	2
TAP	3	288	2
HLD	4	0	2	96
TAP	4	96	3
HLD	4	144	3	96
STR	4	240	4
SCR	4	240	4	96	240	3
TAP	4	288	4
TTP	5	192	0	C	1	M1
BRK	5	288	1
BRK	5	288	6
TAP	6	0	0
TAP	6	0	7
TAP	6	96	3
TAP	6	96	6
TAP	6	144	5
TAP	6	168	4
TAP	6	192	5
TAP	6	240	3
TAP	6	240	6
TAP	6	288	2
TAP	6	288	7
TAP	6	336	0
HLD	6	336	1	96
TAP	7	48	4
TAP	7	96	4
TAP	7	144	2
TAP	7	168	3
TAP	7	192	2
TAP	7	240	1
TAP	7	240	4
TAP	7	288	0
TAP	7	288	5
HLD	7	336	6	96
HLD	7	336	7	96
TAP	8	96	0
TAP	8	144	1
TAP	8	192	2
TAP	8	192	3
TAP	8	288	4
TAP	8	288	5
TAP	8	336	4
TAP	8	336	5
TAP	9	48	0
TAP	9	48	7
TAP	9	96	0
TAP	9	96	7
TAP	9	144	1
TAP	9	144	6
TAP	9	192	2
STR	9	192	5
SCL	9	192	5	96	48	2
TAP	10	0	0
TAP	10	0	1
TAP	10	96	1
TAP	10	96	4
TAP	10	144	2
TAP	10	168	3
TAP	10	192	2
TAP	10	240	1
TAP	10	240	4
TAP	10	288	0
TAP	10	288	5
HLD	10	336	6	96
TAP	10	336	7
TAP	11	48	3
TAP	11	96	3
TAP	11	144	5
TAP	11	168	4
TAP	11	192	5
TAP	11	240	3
TAP	11	240	6
TAP	11	288	2
TAP	11	288	7
TAP	12	0	4
TAP	12	0	6
TAP	12	48	5
TAP	12	96	3
TAP	12	96	4
TAP	12	144	2
TAP	12	192	1
TAP	12	192	3
TAP	12	288	2
TAP	12	288	4
TAP	12	336	2
STR	12	336	4
SXL	12	336	4	96	144	4
SXR	12	336	4	96	144	4
BRK	13	288	1
BRK	13	288	6
STR	14	0	2
SI_	14	0	2	96	48	0
TAP	14	96	3
STR	14	192	6
SI_	14	192	6	96	48	4
TAP	14	288	7
STR	15	0	2
SI_	15	0	2	96	48	0
TAP	15	96	3
TAP	15	192	7
TAP	15	288	4
TAP	15	288	6
STR	16	0	5
SI_	16	0	5	96	48	7
TAP	16	96	4
STR	16	192	1
SI_	16	192	1	96	48	3
TAP	16	288	0
STR	17	0	5
SI_	17	0	5	96	48	7
TAP	17	96	4
TAP	17	192	0
TAP	17	240	0
TAP	17	288	1
TAP	17	288	3
STR	18	0	4
SI_	18	0	4	96	48	6
TAP	18	96	3
STR	18	192	2
SI_	18	192	2	96	48	0
TAP	18	288	3
STR	19	0	4
SI_	19	0	4	96	48	6
TAP	19	96	3
TAP	19	192	0
TAP	19	192	7
TAP	19	288	2
TAP	19	288	3
HLD	19	336	2	96
TAP	19	336	3
TAP	20	48	0
TAP	20	144	4
HLD	20	144	5	96
TAP	20	240	7
TAP	20	336	0
HLD	20	336	1	144
TAP	21	48	3
TAP	21	96	3
BRK	21	192	0
BRK	21	192	4
BRK	21	288	0
BRK	21	288	4
STR	22	0	1
SI_	22	0	1	96	48	3
TTP	22	96	0	C	0	M1
TTP	22	96	4	B	0	M1
STR	22	192	7
SI_	22	192	7	96	48	5
TTP	22	288	0	C	0	M1
TTP	22	288	4	B	0	M1
STR	23	0	1
SI_	23	0	1	96	48	3
TTP	23	96	0	C	0	M1
TTP	23	96	4	B	0	M1
TAP	23	192	6
TAP	23	288	0
TAP	23	288	7
STR	24	0	0
SI_	24	0	0	96	48	2
TTP	24	96	0	C	0	M1
TTP	24	96	3	B	0	M1
STR	24	192	6
SI_	24	192	6	96	48	4
TTP	24	288	0	C	0	M1
TTP	24	288	3	B	0	M1
STR	25	0	0
SI_	25	0	0	96	48	2
TTP	25	96	0	C	0	M1
TTP	25	96	3	B	0	M1
TAP	25	192	7
TAP	25	240	7
TAP	25	288	4
TAP	25	288	6
STR	26	0	3
SI_	26	0	3	96	48	1
TTP	26	96	0	C	0	M1
TTP	26	96	4	B	0	M1
STR	26	192	5
SI_	26	192	5	96	48	7
TTP	26	288	0	C	0	M1
TTP	26	288	4	B	0	M1
STR	27	0	3
SI_	27	0	3	96	48	1
TTP	27	96	0	C	0	M1
TTP	27	96	4	B	0	M1
TAP	27	192	0
TAP	27	192	1
TAP	27	288	2
TAP	27	288	7
HLD	27	336	2	96
TAP	27	336	7
TAP	28	48	3
TAP	28	144	0
HLD	28	144	5	96
TAP	28	240	4
TAP	28	288	4
TAP	28	288	5
XTP	29	0	0
XTP	29	0	7
XTP	29	64	1
XTP	29	96	1
XTP	29	160	5
XTP	29	192	5
TAP	29	288	3
TAP	29	288	4
HLD	30	0	5	64
TAP	30	64	3
TAP	30	96	3
HLD	30	192	4	64
TAP	30	256	2
TAP	30	288	2
TAP	31	0	2
STR	31	0	5
SUR	31	0	5	96	96	2
TAP	31	288	3
TAP	31	288	4
TAP	31	352	2
HLD	32	0	2	64
TAP	32	64	4
TAP	32	96	4
HLD	32	192	2	72
TAP	32	256	3
TAP	32	288	3
TAP	33	0	3
TAP	33	0	4
STR	33	96	1
SI_	33	96	1	96	96	5
SCR	33	96	1	96	96	5
TAP	33	96	5
TAP	34	0	4
TAP	34	0	6
TAP	34	96	0
TAP	34	96	7
TAP	34	144	0
TAP	34	144	7
TAP	34	240	1
STR	34	240	4
SCL	34	240	4	96	144	5
TTP	34	336	0	C	1	M1
HLD	35	144	0	96
STR	35	240	3
SI_	35	240	3	96	48	6
TAP	35	288	3
TAP	35	336	1
STR	36	48	3
SI_	36	48	3	96	48	7
TAP	36	96	3
TAP	36	144	4
STR	36	240	5
SI_	36	240	5	96	48	0
TAP	36	288	5
TAP	36	336	3
STR	37	48	2
SI_	37	48	2	96	48	7
TAP	37	96	2
TAP	37	144	4
TAP	37	240	0
TAP	37	240	6
STR	37	288	0
SSL	37	288	0	96	192	4
TAP	37	288	6
HLD	38	0	7	192
THO	38	336	0	240	C	1	M1
TTP	38	336	1	B	0	M1
TTP	38	336	2	B	0	M1
TTP	38	336	2	E	0	M1
TTP	38	336	5	B	0	M1
TTP	38	336	6	B	0	M1
TTP	38	336	6	E	0	M1
TAP	39	336	1
TAP	39	336	6
TAP	40	48	5
TAP	40	72	4
TAP	40	96	6
TAP	40	144	2
TAP	40	168	3
TAP	40	192	1
STR	40	240	6
SCR	40	240	6	96	96	3
TAP	40	288	6
TAP	40	336	0
TAP	41	96	1
TAP	41	144	3
TAP	41	144	4
TAP	41	240	1
TAP	41	240	6
TAP	41	288	1
TAP	41	288	6
TAP	42	0	0
TAP	42	0	6
TAP	42	48	1
TAP	42	96	2
TAP	42	96	7
TAP	42	144	6
TAP	42	192	0
TAP	42	192	5
TAP	42	240	1
TAP	42	288	2
TAP	42	288	7
TAP	42	336	2
HLD	42	336	7	144
TAP	43	48	3
HLD	43	96	3	96
TAP	43	144	0
HLD	43	192	0	48
TAP	43	240	4
BRK	43	288	3
BRK	43	288	7
TAP	44	0	1
TAP	44	0	6
TAP	44	48	5
TAP	44	96	3
TAP	44	96	4
TAP	44	144	2
TAP	44	192	0
TAP	44	192	1
TAP	44	240	0
STR	44	240	1
SCL	44	240	1	96	96	4
TAP	44	336	7
TAP	45	96	6
TAP	45	144	3
TAP	45	144	4
TAP	45	240	6
TAP	45	240	7
TAP	45	288	6
TAP	45	288	7
TAP	46	0	1
TAP	46	0	7
TAP	46	48	6
TAP	46	96	0
TAP	46	96	5
TAP	46	144	1
TAP	46	192	2
TAP	46	192	7
TAP	46	240	6
TAP	46	288	0
TAP	46	288	5
BRK	46	336	1
BRK	46	336	4
TAP	47	96	3
TAP	47	96	4
TTP	47	192	0	C	1	M1
TTP	47	192	2	B	0	M1
TTP	47	192	5	B	0	M1
TAP	47	336	1
TAP	47	336	6
TAP	48	48	5
TAP	48	72	4
TAP	48	96	6
TAP	48	144	2
TAP	48	168	3
TAP	48	192	1
STR	48	240	6
SCR	48	240	6	96	96	3
TAP	48	288	6
TAP	48	336	0
TAP	49	96	1
TAP	49	144	3
TAP	49	144	4
TAP	49	240	1
TAP	49	240	6
TAP	49	288	1
TAP	49	288	6
TAP	50	0	0
TAP	50	0	6
TAP	50	48	1
TAP	50	96	2
TAP	50	96	7
TAP	50	144	6
TAP	50	192	0
TAP	50	192	5
TAP	50	240	1
TAP	50	288	2
TAP	50	288	7
TAP	50	336	2
HLD	50	336	7	144
TAP	51	48	3
HLD	51	96	3	96
TAP	51	144	0
HLD	51	192	0	48
TAP	51	240	4
BRK	51	288	3
BRK	51	288	7
TAP	52	0	1
TAP	52	0	6
TAP	52	48	5
TAP	52	96	3
TAP	52	96	4
TAP	52	144	2
TAP	52	192	0
TAP	52	192	1
TAP	52	240	0
STR	52	240	1
SCL	52	240	1	96	96	4
TAP	52	336	7
TAP	53	96	6
TAP	53	144	3
TAP	53	144	4
TAP	53	240	6
TAP	53	240	7
TAP	53	288	6
TAP	53	288	7
HLD	54	0	1	96
TAP	54	0	6
TAP	54	96	3
HLD	54	144	3	96
STR	54	240	4
SCR	54	240	4	96	240	3
SUL	54	240	4	96	240	3
TAP	54	336	4
HLD	55	336	5	240
TAP	56	96	4
TAP	56	192	4
HLD	56	336	3	144
STR	57	96	2
SCR	57	96	2	96	96	5
HLD	58	0	5	96
TAP	58	96	3
HLD	58	192	2	144
HLD	58	336	4	144
TAP	59	48	3
TAP	59	96	3
TAP	59	192	3
TAP	59	192	4
STR	59	336	2
SUL	59	336	2	96	192	5
STR	59	336	5
SUR	59	336	5	96	192	2
XST	60	336	2
SCR	60	336	2	96	144	5
XTP	61	48	5
XST	61	96	5
SCL	61	96	5	96	96	2
XHO	62	0	4	144
XHO	62	144	3	192
THO	62	336	0	240	C	1	M1
HLD	63	336	0	96
HLD	63	336	7	96
STR	64	96	0
SUL	64	96	0	96	96	3
STR	64	96	7
SCL	64	96	7	96	96	4
HLD	64	336	3	96
HLD	64	336	4	96
STR	65	96	3
SCL	65	96	3	96	96	0
STR	65	96	4
SUL	65	96	4	96	96	7
TAP	66	0	1
TAP	66	48	1
TAP	66	96	4
TAP	66	144	4
TAP	66	192	3
STR	66	288	3
SI_	66	288	3	96	48	1
STR	66	288	4
SI_	66	288	4	96	48	6
TAP	67	96	3
TAP	67	96	4
TAP	67	192	2
TAP	67	192	5
TAP	67	288	0
TAP	67	288	1
HLD	67	336	0	96
HLD	67	336	1	96
STR	68	96	0
SUR	68	96	0	96	96	5
STR	68	96	1
SCR	68	96	1	96	96	4
HLD	68	336	4	96
HLD	68	336	5	96
STR	69	96	4
SUR	69	96	4	96	96	1
STR	69	96	5
SCR	69	96	5	96	96	0
TAP	69	336	2
HLD	70	0	2	96
TAP	70	96	0
HLD	70	144	0	96
STR	70	240	7
SCL	70	240	7	96	240	0
TAP	70	288	7
BRK	71	288	1
BRK	71	288	6
STR	72	0	5
SI_	72	0	5	96	48	7
TTP	72	96	4	B	0	M1
STR	72	192	1
SI_	72	192	1	96	48	3
TTP	72	288	0	B	0	M1
STR	73	0	5
SI_	73	0	5	96	48	7
TTP	73	96	4	B	0	M1
STR	73	192	1
SI_	73	192	1	96	48	3
TTP	73	288	0	B	0	M1
TAP	74	0	4
TAP	74	0	5
TAP	74	96	2
TAP	74	96	3
TAP	74	192	3
TAP	74	192	4
TAP	74	288	1
TAP	74	288	6
TAP	74	336	1
HLD	74	336	6	240
TTP	75	96	6	B	0	M1
TTP	75	192	0	C	0	M1
TTP	75	288	3	B	0	M1
TTP	75	288	4	B	0	M1
STR	76	0	2
SI_	76	0	2	96	48	0
TTP	76	96	3	B	0	M1
STR	76	192	6
SI_	76	192	6	96	48	4
TTP	76	288	7	B	0	M1
STR	77	0	2
SI_	77	0	2	96	48	0
TTP	77	96	3	B	0	M1
STR	77	192	6
SI_	77	192	6	96	48	4
TTP	77	288	7	B	0	M1
TAP	78	0	1
TAP	78	0	3
TAP	78	96	4
TAP	78	96	6
TAP	78	192	0
TAP	78	192	7
TAP	78	240	0
TAP	78	240	7
HLD	78	336	1	336
TAP	78	336	6
TTP	79	96	1	B	0	M1
TTP	79	192	7	B	0	M1
TTP	79	288	5	B	0	M1
STR	80	0	3
SI_	80	0	3	96	48	0
TTP	80	96	0	C	0	M1
STR	80	192	7
SI_	80	192	7	96	48	4
TTP	80	288	0	C	0	M1
STR	81	0	3
SI_	81	0	3	96	48	0
TTP	81	96	0	C	0	M1
STR	81	192	7
SI_	81	192	7	96	48	4
TTP	81	288	0	C	0	M1
TAP	82	0	3
TAP	82	0	4
TAP	82	96	4
TAP	82	96	6
TAP	82	144	4
TAP	82	144	6
TAP	82	240	1
TAP	82	240	3
HLD	82	288	1	336
TAP	82	288	3
TAP	83	48	0
TAP	83	144	7
TAP	83	240	6
HLD	83	336	3	96
HLD	83	336	4	96
TAP	84	96	3
TAP	84	96	4
TAP	84	144	2
TAP	84	192	3
TAP	84	192	4
TAP	84	240	5
TAP	84	288	3
TAP	84	288	4
TAP	84	336	3
TAP	84	336	4
TAP	85	0	2
TAP	85	0	5
TAP	85	48	6
TAP	85	96	2
TAP	85	96	5
TAP	85	144	1
TAP	85	192	2
TAP	85	192	5
TAP	85	240	6
STR	85	288	2
SSL	85	288	2	96	192	6
TAP	85	288	5
HLD	86	0	7	192
THO	86	336	0	240	C	1	M1
TTP	86	336	1	B	0	M1
TTP	86	336	2	B	0	M1
TTP	86	336	2	E	0	M1
TTP	86	336	5	B	0	M1
TTP	86	336	6	B	0	M1
TTP	86	336	6	E	0	M1
TAP	87	336	1
TAP	87	336	6
TAP	88	48	2
TAP	88	72	3
TAP	88	96	1
TAP	88	144	5
TAP	88	168	4
TAP	88	192	6
STR	88	240	1
SCL	88	240	1	96	96	4
TAP	88	288	1
TAP	88	336	7
TAP	89	96	6
TAP	89	144	3
TAP	89	144	4
TAP	89	240	0
TAP	89	240	7
TAP	89	288	0
TAP	89	288	7
HLD	90	0	1	192
HLD	90	0	6	192
TAP	90	288	2
TAP	90	288	7
TAP	90	336	2
HLD	90	336	7	144
TAP	91	48	3
HLD	91	96	3	96
TAP	91	144	0
HLD	91	192	0	48
TAP	91	240	4
BRK	91	288	3
BRK	91	288	7
TAP	92	0	1
TAP	92	0	6
TAP	92	48	2
TAP	92	96	3
TAP	92	96	4
TAP	92	144	5
TAP	92	192	6
TAP	92	192	7
STR	92	240	6
SCR	92	240	6	96	96	3
TAP	92	240	7
TAP	92	336	0
TAP	93	96	1
TAP	93	144	3
TAP	93	144	4
TAP	93	240	0
TAP	93	240	1
TAP	93	288	0
TAP	93	288	1
TAP	94	0	1
TAP	94	0	7
TAP	94	48	6
TAP	94	96	0
TAP	94	96	5
TAP	94	144	1
TAP	94	192	2
TAP	94	192	7
TAP	94	240	6
TAP	94	288	0
TAP	94	288	5
BRK	94	336	1
BRK	94	336	4
TAP	95	96	3
TAP	95	96	4
TTP	95	192	0	C	1	M1
TTP	95	192	2	B	0	M1
TTP	95	192	5	B	0	M1
TAP	95	336	1
TAP	95	336	6
TAP	96	48	2
TAP	96	72	3
TAP	96	96	1
TAP	96	144	5
TAP	96	168	4
TAP	96	192	6
STR	96	240	1
SCL	96	240	1	96	96	4
TAP	96	288	1
TAP	96	336	7
TAP	97	96	6
TAP	97	144	3
TAP	97	144	4
TAP	97	240	0
TAP	97	240	7
TAP	97	288	0
TAP	97	288	7
TAP	98	0	1
TAP	98	0	7
TAP	98	48	6
TAP	98	96	0
TAP	98	96	5
TAP	98	144	1
TAP	98	192	2
TAP	98	192	7
TAP	98	240	6
TAP	98	288	0
TAP	98	288	5
HLD	98	336	0	144
TAP	98	336	5
TAP	99	48	4
HLD	99	96	4	96
TAP	99	144	7
HLD	99	192	7	48
TAP	99	240	3
BRK	99	288	0
BRK	99	288	4
TAP	100	0	1
TAP	100	0	6
TAP	100	48	2
TAP	100	96	3
TAP	100	96	4
TAP	100	144	5
TAP	100	192	6
TAP	100	192	7
STR	100	240	6
SCR	100	240	6	96	96	3
TAP	100	240	7
TAP	100	336	0
TAP	101	96	1
TAP	101	144	3
TAP	101	144	4
TAP	101	240	0
TAP	101	240	1
TAP	101	288	0
TAP	101	288	1
HLD	102	0	1	96
TAP	102	0	6
TAP	102	96	3
HLD	102	144	3	96
STR	102	240	4
SCR	102	240	4	96	240	3
SUL	102	240	4	96	240	3
TAP	102	336	4
HLD	104	0	2	192
HLD	104	0	5	192
TAP	104	336	3
TAP	104	336	4
TAP	105	48	1
TAP	105	48	6
TAP	105	96	1
TAP	105	96	6
STR	105	192	3
SI_	105	192	3	96	48	0
STR	105	192	4
SI_	105	192	4	96	48	7
TAP	105	288	3
TAP	105	288	4
BRK	106	0	1
BRK	106	0	6

T_REC_TAP	460
T_REC_BRK	24
T_REC_XTP	7
T_REC_HLD	59
T_REC_XHO	2
T_REC_STR	68
T_REC_BST	0
T_REC_XST	2
T_REC_TTP	57
T_REC_THO	3
T_REC_SLD	74
T_REC_ALL	756
T_NUM_TAP	594
T_NUM_BRK	24
T_NUM_HLD	64
T_NUM_SLD	74
T_NUM_ALL	756
T_JUDGE_TAP	618
T_JUDGE_HLD	173
T_JUDGE_SLD	74
T_JUDGE_ALL	865
TTM_EACHPAIRS	186
TTM_SCR_TAP	297000
TTM_SCR_BRK	62400
TTM_SCR_HLD	64000
TTM_SCR_SLD	111000
TTM_SCR_ALL	534400
TTM_SCR_S	516050
TTM_SCR_SS	532000
TTM_RAT_ACV	10045

