VERSION	0.00.00	1.03.00
FES_MODE	0
BPM_DEF	177.000	177.000	177.000	177.000
MET_DEF	4	4
RESOLUTION	384
CLK_DEF	384
COMPATIBLE_CODE	MA2

BPM	0	0	177.000
MET	0	0	4	4

TAP	2	0	3
TAP	2	96	3
TAP	2	192	4
TAP	2	288	4
TAP	3	0	2
TAP	3	96	3
TAP	3	192	5
TAP	3	288	4
TAP	4	0	3
TAP	4	96	3
TAP	4	192	4
TAP	4	288	4
THO	5	0	0	192	C	1	M1
TAP	6	0	6
TAP	6	0	7
TAP	6	96	0
TAP	6	192	2
TAP	6	240	3
TAP	6	288	4
HLD	6	336	5	144
TAP	7	48	0
TAP	7	96	0
TAP	7	192	5
TAP	7	240	4
TAP	7	288	3
HLD	7	336	2	144
TAP	8	48	7
TAP	8	96	7
TAP	8	192	2
TAP	8	240	3
TAP	8	288	4
TAP	8	336	5
TAP	9	48	4
TAP	9	48	6
TAP	9	144	1
TAP	9	144	3
TAP	9	240	0
TAP	9	240	7
BRK	9	288	0
BRK	9	288	7
XTP	10	0	0
XTP	10	0	1
TAP	10	96	7
TAP	10	192	5
TAP	10	240	4
TAP	10	288	3
HLD	10	336	2	144
TAP	11	48	7
TAP	11	96	7
TAP	11	192	3
TAP	11	192	4
TAP	11	288	6
TAP	11	288	7
TAP	12	0	4
TAP	12	0	5
TAP	12	96	2
TAP	12	96	3
STR	12	192	0
SCL	12	192	0	96	144	5
STR	12	192	1
SCR	12	192	1	96	144	4
TTP	13	192	0	C	1	M1
TTP	13	192	1	B	0	M1
TTP	13	192	6	B	0	M1
TAP	14	0	0
TAP	14	96	1
TAP	14	96	3
TAP	14	192	4
TAP	14	240	4
TAP	14	288	3
TAP	15	0	5
TAP	15	96	4
TAP	15	96	6
TAP	15	192	3
TAP	15	240	3
TAP	15	288	4
HLD	16	0	2	96
TAP	16	96	3
HLD	16	192	5	96
TAP	16	288	4
TAP	17	0	2
TAP	17	96	3
TAP	17	192	4
TAP	17	192	5
TAP	17	288	3
STR	17	288	6
SI_	17	288	6	96	96	3
TAP	18	192	2
TAP	18	192	3
STR	18	288	1
SI_	18	288	1	96	96	4
TAP	18	288	4
TAP	19	192	4
TAP	19	288	3
TAP	20	0	2
TAP	20	96	1
TAP	20	96	3
TAP	20	192	5
TAP	20	288	4
TAP	20	288	6
HLD	21	0	0	96
HLD	21	96	7	96
TAP	21	192	0
BRK	21	288	1
BRK	21	288	6
TAP	22	0	5
TAP	22	96	4
TAP	22	96	6
TAP	22	192	3
TAP	22	240	3
TAP	22	288	4
TAP	23	0	2
TAP	23	96	1
TAP	23	96	3
TAP	23	192	4
TAP	23	240	4
TAP	23	288	3
HLD	24	0	5	96
TAP	24	96	4
HLD	24	192	2	96
TAP	24	288	3
TAP	25	0	4
TAP	25	0	5
TAP	25	96	3
TAP	25	96	4
TAP	25	192	2
TAP	25	192	3
TAP	25	288	1
STR	25	288	4
SI_	25	288	4	96	96	7
TAP	26	192	0
TAP	26	192	1
STR	26	288	2
SCL	26	288	2	96	192	5
TAP	26	288	7
TAP	27	192	4
TAP	27	288	3
TAP	28	0	1
TAP	28	96	0
TAP	28	96	2
TAP	28	192	6
TAP	28	288	5
TAP	28	288	7
TAP	29	0	0
TAP	29	96	1
TAP	29	96	7
BRK	29	192	2
BRK	29	192	6
TTP	30	0	5	B	0	M1
TTP	30	96	4	B	0	M1
TTP	30	192	2	B	0	M1
TTP	30	288	3	B	0	M1
TTP	31	0	7	E	0	M1
TTP	31	96	1	E	0	M1
TTP	31	192	0	E	0	M1
TTP	32	0	4	E	0	M1
TTP	32	96	5	E	0	M1
TTP	32	192	6	E	0	M1
TTP	32	288	0	C	0	M1
TTP	33	0	0	B	0	M1
TTP	33	0	1	B	0	M1
TTP	33	0	2	B	0	M1
TTP	33	0	3	B	0	M1
TTP	33	0	4	B	0	M1
TTP	33	0	5	B	0	M1
BRK	33	192	6
BRK	33	192	7
TAP	33	288	5
XTP	34	0	4
XTP	34	0	6
TAP	34	96	2
TAP	34	96	3
XTP	34	144	2
XTP	34	144	3
TAP	34	240	5
TAP	34	288	4
XTP	34	336	3
XTP	34	336	6
TAP	35	48	2
TAP	35	96	3
XTP	35	144	1
XTP	35	144	4
TAP	35	240	3
TAP	35	240	4
TAP	35	288	3
TAP	35	288	4
TAP	36	0	2
TAP	36	96	1
TAP	36	96	3
TAP	36	192	5
TAP	36	288	4
TAP	36	288	6
TAP	37	0	1
TAP	37	96	0
TAP	37	96	2
TAP	37	192	6
STR	37	288	0
SLL	37	288	0	96	240	1
STR	37	288	4
SLL	37	288	4	96	240	5
TTP	39	0	0	C	1	M1
TTP	39	0	3	B	0	M1
TTP	39	0	4	B	0	M1
TAP	39	192	0
TAP	39	192	7
TAP	39	240	0
TAP	39	240	7
XHO	39	336	0	96
XHO	39	336	6	96
TAP	40	96	2
TAP	40	96	7
TAP	40	192	0
TAP	40	192	5
TAP	40	288	1
TAP	40	288	7
TAP	41	0	0
TAP	41	0	6
TAP	41	96	2
TAP	41	96	7
TAP	41	192	0
TAP	41	192	5
TAP	41	288	1
TAP	41	288	7
TAP	42	0	0
TAP	42	0	5
TAP	42	96	2
TAP	42	96	3
STR	42	144	2
SXR	42	144	2	96	288	7
STR	42	144	3
SXL	42	144	3	96	288	6
BRK	43	240	0
BRK	43	240	5
BRK	43	288	0
BRK	43	288	5
TAP	44	0	3
TAP	44	0	6
TAP	44	96	1
TAP	44	96	4
TAP	44	192	5
TAP	44	240	4
TAP	44	288	3
HLD	44	336	2	96
TAP	45	48	7
TAP	45	144	0
TAP	45	144	6
TAP	45	240	2
TAP	45	288	2
HLD	46	0	0	96
HLD	46	0	7	96
TAP	46	144	0
TAP	46	144	7
STR	46	240	3
SCL	46	240	3	96	96	0
STR	46	240	4
SCR	46	240	4	96	96	7
TAP	47	192	2
TAP	47	192	5
TAP	47	240	2
TAP	47	240	5
XHO	47	336	1	96
XHO	47	336	7	96
TAP	48	96	0
TAP	48	96	5
TAP	48	192	2
TAP	48	192	7
TAP	48	288	0
TAP	48	288	6
TAP	49	0	1
TAP	49	0	7
TAP	49	96	0
TAP	49	96	5
TAP	49	192	2
TAP	49	192	7
TAP	49	288	0
TAP	49	288	6
TAP	50	0	2
TAP	50	0	7
TAP	50	96	4
TAP	50	96	5
STR	50	144	4
SXR	50	144	4	96	288	1
STR	50	144	5
SXL	50	144	5	96	288	0
BRK	51	240	2
BRK	51	240	7
BRK	51	288	2
BRK	51	288	7
TAP	52	0	1
TAP	52	0	4
TAP	52	96	3
TAP	52	96	6
TAP	52	192	2
TAP	52	240	3
TAP	52	288	4
HLD	52	336	5	96
TAP	53	48	0
TAP	53	144	1
TAP	53	144	7
TAP	53	240	5
TAP	53	288	5
HLD	54	0	0	96
HLD	54	0	7	96
TAP	54	144	0
TAP	54	144	7
TAP	54	240	1
TAP	54	240	6
STR	54	336	2
SXR	54	336	2	96	240	4
STR	54	336	5
SXL	54	336	5	96	240	3
HLD	56	0	5	384
TAP	56	192	4
HLD	57	0	4	384
TAP	57	192	3
HLD	58	0	3	384
TAP	58	192	2
STR	59	0	2
SCR	59	0	2	96	192	5
HLD	60	0	2	384
TAP	60	192	3
HLD	61	0	3	192
TAP	61	192	4
STR	62	0	2
SCL	62	0	2	96	480	4
STR	62	0	5
SCR	62	0	5	96	480	3
XHO	63	336	2	336
TTP	64	96	2	E	0	M1
TTP	64	192	3	E	0	M1
TTP	64	288	4	E	0	M1
XHO	65	0	5	288
TTP	65	96	6	E	0	M1
TTP	65	192	5	E	0	M1
TTP	65	288	4	E	0	M1
XHO	66	0	2	288
TTP	66	96	2	E	0	M1
TTP	66	192	3	E	0	M1
TTP	66	288	4	E	0	M1
TTP	67	0	6	B	0	M1
TTP	67	0	7	E	0	M1
TTP	67	96	4	B	0	M1
TTP	67	96	5	E	0	M1
TTP	67	192	2	B	0	M1
TTP	67	192	3	E	0	M1
TTP	67	288	0	B	0	M1
TTP	67	288	1	E	0	M1
XHO	68	0	7	288
TTP	68	96	5	E	0	M1
TTP	68	192	6	E	0	M1
TTP	68	288	7	E	0	M1
XHO	69	0	0	288
TTP	69	96	3	E	0	M1
TTP	69	192	2	E	0	M1
TTP	69	288	1	E	0	M1
XTP	70	0	6
XTP	70	0	7
TAP	70	96	0
TAP	70	96	1
XTP	70	144	0
XTP	70	144	1
STR	70	240	0
SCR	70	240	0	96	144	3
STR	70	240	7
SCL	70	240	7	96	144	4
TTP	71	192	0	C	1	M1
TTP	71	192	2	E	0	M1
TTP	71	192	6	E	0	M1
TAP	72	0	0
TAP	72	96	1
TAP	72	96	3
TAP	72	192	4
TAP	72	240	4
TAP	72	288	3
HLD	73	0	6	96
HLD	73	96	5	96
HLD	73	192	4	96
TAP	73	288	3
TAP	74	0	5
TAP	74	96	4
TAP	74	96	6
TAP	74	192	3
STR	74	240	3
SCR	74	240	3	96	144	7
TAP	75	192	0
TAP	75	192	7
TAP	75	288	1
TAP	75	288	6
TAP	76	0	5
TAP	76	96	4
TAP	76	96	6
TAP	76	192	3
TAP	76	240	3
TAP	76	288	4
HLD	77	0	1	96
HLD	77	96	2	96
HLD	77	192	3	96
TAP	77	288	4
TAP	77	336	4
TAP	78	48	3
TAP	78	48	5
TAP	78	144	2
TAP	78	192	3
STR	78	240	2
SCR	78	240	2	96	144	5
TAP	79	192	3
TAP	79	192	5
TAP	79	288	2
TAP	79	288	4
TAP	80	0	5
TAP	80	96	4
TAP	80	96	6
TAP	80	192	3
TAP	80	240	3
TAP	80	288	4
HLD	81	0	1	96
HLD	81	96	2	96
HLD	81	192	3	96
TAP	81	288	4
XTP	82	0	2
XTP	82	0	5
TAP	82	96	0
TAP	82	96	6
XTP	82	144	0
XTP	82	144	6
TAP	82	240	1
TAP	82	240	7
XHO	82	288	1	192
XHO	82	288	7	192
TAP	83	192	3
TAP	83	192	4
TAP	83	288	1
TAP	83	288	6
TAP	83	336	1
HLD	83	336	6	144
TAP	84	96	4
TAP	84	192	2
TAP	84	288	1
TAP	84	288	3
TAP	85	0	6
TAP	85	96	5
TAP	85	96	7
TAP	85	192	1
STR	85	288	3
SLR	85	288	3	96	240	2
STR	85	288	7
SLR	85	288	7	96	240	6
TTP	87	0	0	C	1	M1
TTP	87	0	2	E	0	M1
TTP	87	0	6	E	0	M1
TAP	87	192	0
TAP	87	192	7
TAP	87	240	0
TAP	87	240	7
XHO	87	336	0	96
XHO	87	336	6	96
TAP	88	96	2
TAP	88	96	7
TAP	88	192	0
TAP	88	192	4
TAP	88	288	1
TAP	88	288	7
TAP	89	0	0
TAP	89	0	5
TAP	89	96	2
TAP	89	96	7
TAP	89	192	0
TAP	89	192	6
TAP	89	288	3
TAP	89	288	7
TAP	90	0	1
TAP	90	0	5
TAP	90	96	2
TAP	90	96	3
STR	90	144	2
SXR	90	144	2	96	288	7
STR	90	144	3
SXL	90	144	3	96	288	6
BRK	91	240	0
BRK	91	240	5
BRK	91	288	0
BRK	91	288	5
TAP	92	0	3
TAP	92	0	6
TAP	92	96	1
TAP	92	96	4
TAP	92	192	5
TAP	92	240	4
TAP	92	288	3
HLD	92	336	2	96
TAP	93	48	0
TAP	93	144	1
TAP	93	144	7
TAP	93	240	5
TAP	93	288	5
TAP	94	0	0
TAP	94	0	7
TAP	94	96	1
TAP	94	96	6
TAP	94	144	1
TAP	94	144	6
STR	94	240	3
SCL	94	240	3	96	96	0
STR	94	240	4
SCR	94	240	4	96	96	7
TAP	95	192	2
TAP	95	192	5
TAP	95	240	2
TAP	95	240	5
XHO	95	336	1	96
XHO	95	336	7	96
TAP	96	96	0
TAP	96	96	5
TAP	96	192	3
TAP	96	192	7
TAP	96	288	0
TAP	96	288	6
TAP	97	0	2
TAP	97	0	7
TAP	97	96	0
TAP	97	96	5
TAP	97	192	1
TAP	97	192	7
TAP	97	288	0
TAP	97	288	4
TAP	98	0	2
TAP	98	0	6
TAP	98	96	4
TAP	98	96	5
STR	98	144	4
SXR	98	144	4	96	288	1
STR	98	144	5
SXL	98	144	5	96	288	0
BRK	99	240	2
BRK	99	240	7
BRK	99	288	2
BRK	99	288	7
TAP	100	0	1
TAP	100	0	4
TAP	100	96	3
TAP	100	96	6
TAP	100	192	2
TAP	100	240	3
TAP	100	288	4
HLD	100	336	5	96
TAP	101	48	7
TAP	101	144	0
TAP	101	144	6
TAP	101	240	2
TAP	101	288	2
TAP	102	0	0
TAP	102	0	7
TAP	102	96	1
TAP	102	96	6
TAP	102	144	1
TAP	102	144	6
TAP	102	240	3
TAP	102	240	4
TTP	102	336	0	C	1	M1
TTP	102	336	1	B	0	M1
TTP	102	336	2	B	0	M1
TTP	102	336	5	B	0	M1
TTP	102	336	6	B	0	M1
TAP	103	192	0
TAP	103	192	7
TAP	103	288	3
TAP	103	288	4
XHO	104	0	2	288
XHO	104	0	5	288
XTP	104	336	2
XTP	104	336	5
XTP	105	48	1
XTP	105	48	6
XTP	105	96	1
XTP	105	96	6
XST	105	192	0
SI_	105	192	0	96	48	3
XST	105	192	7
SI_	105	192	7	96	48	4
BRK	106	0	1
BRK	106	0	6

T_REC_TAP	358
T_REC_BRK	26
T_REC_XTP	24
T_REC_HLD	32
T_REC_XHO	17
T_REC_STR	31
T_REC_BST	0
T_REC_XST	2
T_REC_TTP	57
T_REC_THO	1
T_REC_SLD	33
T_REC_ALL	581
T_NUM_TAP	472
T_NUM_BRK	26
T_NUM_HLD	50
T_NUM_SLD	33
T_NUM_ALL	581
T_JUDGE_TAP	498
T_JUDGE_HLD	165
T_JUDGE_SLD	33
T_JUDGE_ALL	696
TTM_EACHPAIRS	164
TTM_SCR_TAP	236000
TTM_SCR_BRK	67600
TTM_SCR_HLD	50000
TTM_SCR_SLD	49500
TTM_SCR_ALL	403100
TTM_SCR_S	388500
TTM_SCR_SS	400500
TTM_RAT_ACV	10064

