VERSION	0.00.00	1.03.00
FES_MODE	0
BPM_DEF	177.000	177.000	177.000	177.000
MET_DEF	4	4
RESOLUTION	384
CLK_DEF	384
COMPATIBLE_CODE	MA2

BPM	0	0	177.000
MET	0	0	4	4

TAP	2	0	5
TAP	2	96	5
TAP	2	192	4
TAP	2	192	5
TAP	3	0	3
TAP	3	96	3
TAP	3	192	3
TAP	3	192	4
TAP	4	0	2
TAP	4	96	2
TAP	4	192	1
TAP	4	288	1
XTP	5	0	0
XTP	5	0	7
XTP	5	96	0
XTP	5	96	7
BRK	5	192	1
BRK	5	192	6
TAP	6	0	6
TAP	6	96	6
TAP	6	192	6
TAP	6	192	7
TAP	7	0	1
TAP	7	96	1
TAP	7	192	0
TAP	7	192	1
TAP	8	0	6
TAP	8	96	6
TAP	8	192	7
TAP	8	288	7
TAP	9	0	0
TAP	9	96	0
XTP	9	192	0
XTP	9	192	1
TAP	10	0	1
TAP	10	96	1
TAP	10	192	0
TAP	10	192	1
TAP	11	0	6
TAP	11	96	6
TAP	11	192	6
TAP	11	192	7
TAP	12	0	1
TAP	12	96	1
TAP	12	192	0
TAP	12	288	0
TAP	13	0	0
TAP	13	0	7
TAP	13	96	0
TAP	13	96	7
XTP	13	192	1
XTP	13	192	6
HLD	14	0	5	192
TAP	14	192	4
TAP	14	288	3
HLD	15	0	2	192
TAP	15	192	3
TAP	15	288	3
HLD	16	0	4	192
TAP	16	192	3
TAP	16	288	3
TAP	17	0	2
TAP	17	96	2
XTP	17	192	2
XTP	17	192	3
HLD	18	0	2	192
TAP	18	192	3
TAP	18	288	4
HLD	19	0	5	192
TAP	19	192	4
TAP	19	288	4
HLD	20	0	3	192
TAP	20	192	4
TAP	20	288	4
XTP	21	0	3
XTP	21	0	4
XTP	21	96	3
XTP	21	96	4
XTP	21	192	2
XTP	21	192	5
TAP	22	0	2
TAP	22	96	2
TAP	22	192	2
TAP	22	192	3
TAP	23	0	5
TAP	23	96	5
TAP	23	192	4
TAP	23	192	5
TAP	24	0	3
TAP	24	96	3
TAP	24	192	4
TAP	24	288	4
TAP	25	0	5
TAP	25	96	5
XTP	25	192	4
XTP	25	192	6
TAP	26	0	5
TAP	26	96	5
TAP	26	192	4
TAP	26	192	5
TAP	27	0	2
TAP	27	96	2
TAP	27	192	2
TAP	27	192	3
TAP	28	0	5
TAP	28	96	5
TAP	28	192	6
TAP	28	288	6
TAP	29	0	0
TAP	29	0	7
TAP	29	96	0
TAP	29	96	7
XTP	29	192	1
XTP	29	192	6
TTP	30	0	6	B	0	L1
TTP	30	192	0	C	0	L1
TTP	31	0	2	B	0	L1
TTP	32	0	1	B	0	L1
TTP	32	192	0	C	0	L1
TTP	33	0	5	B	0	L1
TTP	34	0	6	B	0	L1
TTP	34	192	0	C	0	L1
TTP	35	0	2	B	0	L1
TTP	35	192	1	B	0	L1
TTP	36	0	0	C	0	L1
TTP	36	192	5	B	0	L1
TTP	37	0	3	B	0	L1
TTP	37	0	4	B	0	L1
TTP	37	192	2	B	0	L1
TTP	37	192	5	B	0	L1
THO	38	0	0	384	C	1	L1
XTP	40	0	6
XTP	40	96	6
XTP	40	192	6
XTP	40	192	7
XTP	40	288	6
XTP	40	288	7
TAP	41	0	5
TAP	41	96	4
TAP	41	96	5
XTP	41	192	3
XTP	41	192	6
TAP	42	0	5
TAP	42	96	5
STR	42	192	3
SI_	42	192	3	96	192	0
STR	42	192	4
SI_	42	192	4	96	192	7
XTP	43	192	1
XTP	43	192	6
TAP	44	0	1
TAP	44	96	1
XTP	44	192	0
XTP	44	192	1
XTP	44	288	0
XTP	44	288	1
TAP	45	0	2
TAP	45	96	2
TAP	45	96	3
XTP	45	192	1
XTP	45	192	4
TAP	46	0	1
TAP	46	96	1
TAP	46	192	0
TAP	46	288	0
XTP	47	0	0
XTP	47	0	7
XTP	47	96	0
XTP	47	96	7
XTP	47	192	1
XTP	47	192	6
XTP	48	0	1
XTP	48	96	1
XTP	48	192	0
XTP	48	192	1
XTP	48	288	0
XTP	48	288	1
TAP	49	0	2
TAP	49	96	2
TAP	49	96	3
XTP	49	192	1
XTP	49	192	4
TAP	50	0	2
TAP	50	96	2
STR	50	192	3
SI_	50	192	3	96	192	0
STR	50	192	4
SI_	50	192	4	96	192	7
XTP	51	192	1
XTP	51	192	6
TAP	52	0	6
TAP	52	96	6
XTP	52	192	6
XTP	52	192	7
XTP	52	288	6
XTP	52	288	7
TAP	53	0	5
TAP	53	96	4
TAP	53	96	5
XTP	53	192	3
XTP	53	192	6
TAP	54	0	5
TAP	54	96	5
TAP	54	192	4
TAP	54	288	4
XTP	55	0	3
XTP	55	0	4
XTP	55	96	2
XTP	55	96	5
BRK	55	192	1
BRK	55	192	6
XST	56	0	0
SXR	56	0	0	96	576	3
STR	58	0	4
SXR	58	0	4	96	576	6
STR	60	0	7
SCL	60	0	7	96	240	4
STR	61	0	3
SCL	61	0	3	96	240	0
TAP	62	0	7
TAP	62	96	7
STR	62	192	0
SI_	62	192	0	96	288	3
STR	62	192	7
SI_	62	192	7	96	288	4
TAP	64	0	1
TAP	64	96	1
TAP	64	192	1
XTP	64	288	0
XTP	64	288	1
TAP	65	0	7
TAP	65	96	7
TAP	65	192	7
XTP	65	288	0
XTP	65	288	7
TAP	66	0	1
TAP	66	96	1
TAP	66	192	0
TAP	66	288	0
TAP	67	0	7
TAP	67	96	7
XTP	67	192	0
XTP	67	192	6
TAP	68	0	6
TAP	68	96	6
TAP	68	192	6
XTP	68	288	6
XTP	68	288	7
TAP	69	0	0
TAP	69	96	0
TAP	69	192	0
XTP	69	288	0
XTP	69	288	7
TAP	70	0	6
TAP	70	96	6
TAP	70	192	7
TAP	70	288	7
XTP	71	0	0
XTP	71	0	7
XTP	71	96	1
XTP	71	96	6
XTP	71	192	2
XTP	71	192	5
HLD	72	0	5	384
HLD	73	0	4	384
HLD	74	0	3	384
XTP	75	0	2
XTP	75	192	2
HLD	76	0	1	384
HLD	77	0	0	384
HLD	78	0	7	384
XTP	79	0	6
XTP	79	192	6
XTP	79	192	7
TAP	80	0	5
TAP	80	96	5
XTP	80	192	4
XTP	80	192	5
TAP	81	0	2
TAP	81	96	2
XTP	81	192	2
XTP	81	192	3
TAP	82	0	4
TAP	82	96	4
TAP	82	192	3
TAP	82	192	4
BRK	82	288	2
BRK	82	288	5
XTP	83	192	0
XTP	83	288	0
TAP	84	0	1
TAP	84	96	1
XTP	84	192	0
XTP	84	192	1
TAP	85	0	7
TAP	85	96	7
TAP	85	192	0
TAP	85	192	7
TAP	85	288	0
TAP	85	288	7
XHO	86	0	1	336
XHO	86	0	6	336
XTP	88	0	1
XTP	88	96	0
XTP	88	96	1
XTP	88	192	1
XTP	88	288	0
XTP	88	288	1
TAP	89	0	2
TAP	89	96	2
TAP	89	96	3
XTP	89	192	1
XTP	89	192	4
TAP	90	0	2
TAP	90	96	2
STR	90	192	3
SCL	90	192	3	96	192	0
STR	90	192	4
SCR	90	192	4	96	192	7
XTP	91	192	1
XTP	91	192	6
TAP	92	0	6
XTP	92	96	6
XTP	92	96	7
TAP	92	192	6
XTP	92	288	6
XTP	92	288	7
TAP	93	0	5
TAP	93	96	4
TAP	93	96	5
XTP	93	192	3
XTP	93	192	6
TAP	94	0	2
TAP	94	96	2
TAP	94	192	1
TAP	94	288	1
XTP	95	0	0
XTP	95	0	1
XTP	95	96	0
XTP	95	96	1
XTP	95	192	2
XTP	95	192	7
XTP	96	0	6
XTP	96	96	6
XTP	96	96	7
XTP	96	192	6
XTP	96	288	6
XTP	96	288	7
TAP	97	0	5
TAP	97	96	4
TAP	97	96	5
XTP	97	192	3
XTP	97	192	6
TAP	98	0	5
TAP	98	96	5
STR	98	192	3
SCL	98	192	3	96	192	0
STR	98	192	4
SCR	98	192	4	96	192	7
XTP	99	192	1
XTP	99	192	6
TAP	100	0	1
XTP	100	96	0
XTP	100	96	1
TAP	100	192	1
XTP	100	288	0
XTP	100	288	1
TAP	101	0	2
TAP	101	96	2
TAP	101	96	3
XTP	101	192	1
XTP	101	192	4
TAP	102	0	5
TAP	102	96	6
TAP	102	192	7
TAP	102	288	0
TAP	102	288	7
XTP	103	0	1
XTP	103	0	6
TTP	104	0	3	B	0	L1
TTP	104	0	4	B	0	L1
TTP	104	192	2	B	0	L1
TTP	104	192	5	B	0	L1
THO	105	0	0	384	C	1	L1

T_REC_TAP	183
T_REC_BRK	6
T_REC_XTP	131
T_REC_HLD	12
T_REC_XHO	2
T_REC_STR	13
T_REC_BST	0
T_REC_XST	1
T_REC_TTP	20
T_REC_THO	2
T_REC_SLD	14
T_REC_ALL	384
T_NUM_TAP	348
T_NUM_BRK	6
T_NUM_HLD	16
T_NUM_SLD	14
T_NUM_ALL	384
T_JUDGE_TAP	354
T_JUDGE_HLD	102
T_JUDGE_SLD	14
T_JUDGE_ALL	470
TTM_EACHPAIRS	94
TTM_SCR_TAP	174000
TTM_SCR_BRK	15600
TTM_SCR_HLD	16000
TTM_SCR_SLD	21000
TTM_SCR_ALL	226600
TTM_SCR_S	219250
TTM_SCR_SS	226000
TTM_RAT_ACV	10026

