VERSION	0.00.00	1.03.00
FES_MODE	0
BPM_DEF	177.000	177.000	177.000	177.000
MET_DEF	4	4
RESOLUTION	384
CLK_DEF	384
COMPATIBLE_CODE	MA2

BPM	0	0	177.000
MET	0	0	4	4

TAP	6	0	0
TAP	7	0	0
TAP	8	0	7
HLD	9	0	7	192
TAP	10	0	0
TAP	11	0	0
TAP	12	0	7
XTP	13	0	0
XTP	13	0	7
TAP	14	0	0
TAP	14	192	0
TAP	15	0	0
TAP	16	0	1
TAP	16	192	1
TAP	17	0	1
TAP	18	0	2
TAP	18	192	2
TAP	19	0	2
TAP	20	0	3
TAP	20	192	3
XTP	21	0	3
XTP	21	0	4
TAP	22	0	5
TAP	22	192	5
TAP	23	0	6
TAP	23	192	6
TAP	24	0	7
TAP	24	192	7
TAP	25	0	0
TAP	25	0	7
TAP	26	0	1
TAP	26	192	1
TAP	27	0	2
TAP	27	192	2
TAP	28	0	3
TAP	28	192	3
BRK	29	0	3
BRK	29	0	4
TTP	30	0	3	B	0	L1
TTP	31	0	2	B	0	L1
TTP	32	0	1	B	0	L1
TTP	33	0	0	B	0	L1
TTP	34	0	7	B	0	L1
TTP	35	0	6	B	0	L1
TTP	36	0	5	B	0	L1
TTP	37	0	3	B	0	L1
TTP	37	0	4	B	0	L1
THO	38	0	0	384	C	1	L1
TAP	40	0	0
TAP	40	96	0
TAP	40	192	0
TAP	41	0	7
TAP	41	96	7
TAP	41	192	7
TAP	42	0	6
TAP	42	96	6
TAP	42	192	6
HLD	43	0	5	192
TAP	44	0	4
TAP	44	96	4
TAP	44	192	4
TAP	45	0	3
TAP	45	96	3
TAP	45	192	3
TAP	46	0	2
TAP	46	96	2
TAP	46	192	2
TAP	47	0	2
TAP	47	0	3
XTP	47	192	2
XTP	47	192	3
TAP	48	0	1
TAP	48	96	1
TAP	48	192	1
TAP	49	0	2
TAP	49	96	2
TAP	49	192	2
TAP	50	0	3
TAP	50	96	3
TAP	50	192	3
HLD	51	0	4	192
TAP	52	0	5
TAP	52	96	5
TAP	52	192	5
TAP	53	0	6
TAP	53	96	6
TAP	53	192	6
TAP	54	0	7
TAP	54	96	7
TAP	54	192	7
XTP	55	0	0
XTP	55	0	7
STR	56	0	0
SI_	56	0	0	96	288	3
STR	58	0	7
SI_	58	0	7	96	288	4
STR	60	0	0
SI_	60	0	0	96	288	3
STR	62	0	7
SI_	62	0	7	96	288	4
TAP	64	0	0
TAP	64	192	0
TAP	65	0	1
TAP	65	192	1
TAP	66	0	2
TAP	66	192	2
TAP	67	0	3
TAP	67	96	3
TAP	67	192	3
TAP	68	0	4
TAP	68	192	4
TAP	69	0	5
TAP	69	192	5
TAP	70	0	6
TAP	70	96	6
TAP	70	192	6
TAP	71	0	0
TAP	71	0	7
HLD	72	0	6	384
TAP	74	0	5
TAP	74	192	5
TAP	75	0	4
TAP	75	0	5
HLD	76	0	3	384
TAP	78	0	2
TAP	78	192	2
TAP	79	0	2
TAP	79	0	3
TAP	80	0	1
TAP	80	192	1
TAP	81	0	1
HLD	82	0	0	288
HLD	82	0	7	288
XTP	84	0	0
XTP	84	96	0
XTP	84	192	0
XTP	85	0	7
XTP	85	96	7
XTP	85	192	7
XST	86	0	0
SI_	86	0	0	96	288	4
TAP	88	0	7
TAP	88	96	7
TAP	88	192	7
TAP	89	0	6
TAP	89	96	6
TAP	89	192	6
TAP	90	0	5
TAP	90	96	5
TAP	90	192	5
HLD	91	0	4	192
HLD	91	0	5	192
TAP	92	0	3
TAP	92	96	3
XTP	92	192	3
TAP	93	0	4
TAP	93	96	4
XTP	93	192	4
TAP	94	0	3
TAP	94	0	4
TAP	94	192	3
TAP	94	192	4
HLD	95	0	3	192
HLD	95	0	4	192
TAP	96	0	2
TAP	96	96	2
TAP	96	192	2
TAP	97	0	1
TAP	97	96	1
TAP	97	192	1
TAP	98	0	0
TAP	98	96	0
TAP	98	192	0
HLD	99	0	0	192
HLD	99	0	7	192
TAP	100	0	7
TAP	100	96	7
XTP	100	192	7
TAP	101	0	0
TAP	101	96	0
XTP	101	192	0
TAP	102	0	0
TAP	102	0	7
TAP	102	192	0
TAP	102	192	7
HLD	103	0	1	192
HLD	103	0	6	192
HLD	104	0	0	192
HLD	104	0	7	192
TAP	105	0	0
TAP	105	96	7
TAP	105	192	0
BRK	106	0	1
BRK	106	0	6

T_REC_TAP	135
T_REC_BRK	4
T_REC_XTP	18
T_REC_HLD	17
T_REC_XHO	0
T_REC_STR	4
T_REC_BST	0
T_REC_XST	1
T_REC_TTP	9
T_REC_THO	1
T_REC_SLD	5
T_REC_ALL	194
T_NUM_TAP	167
T_NUM_BRK	4
T_NUM_HLD	18
T_NUM_SLD	5
T_NUM_ALL	194
T_JUDGE_TAP	171
T_JUDGE_HLD	88
T_JUDGE_SLD	5
T_JUDGE_ALL	264
TTM_EACHPAIRS	21
TTM_SCR_TAP	83500
TTM_SCR_BRK	10400
TTM_SCR_HLD	18000
TTM_SCR_SLD	7500
TTM_SCR_ALL	119400
TTM_SCR_S	115450
TTM_SCR_SS	119000
TTM_RAT_ACV	10033

