VERSION	0.00.00	1.03.00
FES_MODE	0
BPM_DEF	192.000	192.000	192.000	192.000
MET_DEF	4	4
RESOLUTION	384
CLK_DEF	384
COMPATIBLE_CODE	MA2

BPM	0	0	192.000
MET	0	0	4	4

TAP	1	144	3
TAP	1	144	4
TAP	1	240	2
TAP	1	240	5
TAP	1	288	2
STR	1	288	5
SI_	1	288	5	96	48	3
XHO	2	0	2	672
TAP	2	144	4
TAP	2	240	4
TAP	2	336	3
TAP	3	48	4
TAP	3	96	4
TAP	3	192	3
TAP	3	288	3
XTP	4	0	3
XTP	4	0	4
XTP	4	48	3
XTP	4	48	4
XTP	4	96	3
XTP	4	96	4
TAP	4	192	2
TAP	4	240	2
TAP	4	240	4
TAP	4	336	5
TAP	5	0	3
TAP	5	0	5
TAP	5	96	2
HLD	5	144	2	96
HLD	5	144	4	96
STR	5	288	2
SI_	5	288	2	96	48	4
TAP	5	288	4
XTP	6	0	5
HLD	6	96	5	96
TAP	6	192	3
TAP	6	240	3
TAP	6	288	4
TAP	6	336	5
TAP	7	0	2
TAP	7	48	2
TAP	7	96	3
TAP	7	144	4
TAP	7	192	3
TAP	7	192	5
TAP	7	288	2
TAP	7	288	4
XTP	8	0	0
XTP	8	0	7
TAP	8	96	6
XTP	8	144	0
XTP	8	144	5
TAP	8	240	1
XTP	8	288	2
XTP	8	288	7
TAP	9	0	3
TAP	9	0	5
TAP	9	48	2
TAP	9	96	1
TAP	9	96	7
TAP	9	144	6
STR	9	192	0
SI_	9	192	0	96	48	4
TAP	9	192	5
BRK	9	288	0
TAP	10	0	5
TAP	10	48	3
TAP	10	96	6
TAP	10	144	0
HLD	10	192	1	96
TAP	10	288	7
STR	10	336	7
SI_	10	336	7	96	48	3
STR	11	48	2
SI_	11	48	2	96	48	5
TAP	11	144	6
TAP	11	240	7
TAP	11	288	1
TAP	11	288	7
TAP	12	0	2
TAP	12	48	4
TAP	12	96	1
TAP	12	144	7
HLD	12	192	6	96
TAP	12	288	2
TAP	12	336	1
TAP	12	336	4
TAP	13	48	0
TAP	13	48	7
TAP	13	96	6
TAP	13	144	3
STR	13	144	5
SI_	13	144	5	96	48	2
XTP	13	240	0
XTP	13	288	0
TAP	14	0	2
TAP	14	48	4
TAP	14	96	3
TAP	14	144	7
HLD	14	192	6	96
TAP	14	288	0
STR	14	336	0
SI_	14	336	0	96	48	4
STR	15	48	5
SI_	15	48	5	96	48	2
TAP	15	144	1
TAP	15	240	0
TAP	15	288	0
TAP	15	288	6
TAP	16	0	1
TAP	16	0	5
TAP	16	48	4
TAP	16	96	3
TAP	16	144	5
TAP	16	192	2
TAP	16	192	6
TAP	16	240	3
TAP	16	288	4
HLD	16	336	2	96
HLD	16	336	5	96
TAP	17	96	2
TAP	17	96	5
XTP	17	192	3
XTP	17	192	4
HLD	18	0	5	96
TAP	18	96	4
TAP	18	144	4
HLD	18	192	6	96
TAP	18	288	4
TAP	19	0	4
HLD	19	0	5	96
TAP	19	96	4
TAP	19	144	4
TAP	19	192	6
TAP	19	288	3
TAP	19	288	5
HLD	20	0	2	96
TAP	20	96	3
TAP	20	144	3
HLD	20	192	1	384
TAP	20	288	2
TTP	21	0	2	E	0	M1
TTP	21	96	4	E	0	M1
TTP	21	192	6	E	0	M1
TTP	21	288	0	E	0	M1
HLD	22	0	2	96
TAP	22	96	3
TAP	22	144	3
HLD	22	192	1	96
TAP	22	288	3
HLD	23	0	2	96
TAP	23	0	3
TAP	23	96	3
TAP	23	144	3
TAP	23	192	1
TAP	23	288	0
HLD	23	288	7	480
TTP	24	0	7	E	0	M1
TTP	24	96	6	E	0	M1
TTP	24	192	5	E	0	M1
TTP	24	288	4	E	0	M1
THO	25	0	0	192	C	0	M1
HLD	26	0	6	96
TAP	26	96	4
TAP	26	144	4
HLD	26	192	5	96
TAP	26	288	4
HLD	27	0	2	96
TAP	27	96	3
TAP	27	144	3
HLD	27	192	1	96
TAP	27	288	3
HLD	28	0	1	96
TAP	28	96	3
TAP	28	144	3
HLD	28	192	2	96
TAP	28	288	3
TAP	29	0	3
TAP	29	0	4
TAP	29	96	3
TAP	29	96	4
TTP	29	192	1	B	0	M1
TTP	29	192	2	B	0	M1
TTP	29	288	6	B	0	M1
TTP	29	288	7	E	0	M1
TAP	30	0	3
HLD	30	0	5	96
TAP	30	96	3
TAP	30	144	3
TAP	30	192	3
HLD	30	192	5	96
TAP	30	288	3
HLD	31	0	2	96
TAP	31	0	4
TAP	31	96	4
TAP	31	144	4
TAP	31	192	2
TAP	31	192	4
HLD	31	288	1	384
TTP	32	0	2	E	0	M1
TTP	32	96	3	E	0	M1
TTP	32	192	4	E	0	M1
TTP	32	288	5	E	0	M1
THO	33	0	0	192	C	0	M1
TTP	33	0	2	E	0	M1
TTP	33	0	6	E	0	M1
XST	34	0	1
SCR	34	0	1	96	192	4
TTP	34	192	4	B	0	M1
TTP	34	192	5	B	0	M1
XST	35	0	7
SCL	35	0	7	96	192	4
TTP	35	192	0	B	0	M1
TTP	35	192	1	B	0	M1
XST	36	0	2
SCL	36	0	2	96	192	7
TTP	36	192	4	B	0	M1
TTP	36	192	5	B	0	M1
XTP	37	0	6
TAP	37	96	6
TAP	37	192	5
TAP	37	288	3
TAP	37	288	4
TAP	38	0	2
TAP	38	0	3
TAP	38	96	1
TAP	38	96	4
TAP	38	192	2
TAP	38	240	3
TAP	38	288	1
TAP	38	288	4
TAP	39	0	4
TAP	39	0	5
TAP	39	96	3
TAP	39	96	6
TAP	39	192	5
TAP	39	240	4
TAP	39	288	3
STR	39	288	6
SCL	39	288	6	96	192	1
TTP	40	0	0	C	0	M1
TAP	40	288	0
TAP	40	288	7
TAP	40	336	1
TAP	40	336	6
BRK	41	0	2
BRK	41	0	5
STR	41	144	1
SI_	41	144	1	96	48	4
TAP	41	192	3
TAP	41	240	1
STR	41	288	7
SF_	41	288	7	96	48	3
BRK	42	0	7
TAP	42	144	0
TAP	42	144	6
TAP	42	192	1
TAP	42	192	5
STR	42	240	2
SI_	42	240	2	96	48	7
TAP	42	240	4
TAP	42	336	2
STR	42	336	6
SI_	42	336	6	96	48	3
STR	43	48	0
SCR	43	48	0	96	144	6
TAP	43	48	6
XTP	43	144	0
XTP	43	144	4
TAP	43	240	7
TAP	43	288	7
TAP	43	336	1
TAP	44	0	1
TAP	44	0	4
TAP	44	48	2
TAP	44	96	3
TAP	44	96	5
TAP	44	144	6
TAP	44	192	6
TAP	44	192	7
TAP	44	240	5
TAP	44	288	3
TAP	44	288	5
STR	44	336	4
SI_	44	336	4	96	48	0
TAP	45	48	1
TAP	45	96	2
TAP	45	144	7
STR	45	192	6
SI_	45	192	6	96	48	2
TAP	45	240	3
TAP	45	288	6
XTP	46	0	0
XTP	46	0	4
XHO	46	144	1	96
XST	46	240	3
SCR	46	240	3	96	48	6
STR	46	336	0
SCR	46	336	0	96	48	3
STR	47	48	7
SI_	47	48	7	96	48	3
XTP	47	144	7
XTP	47	240	1
XTP	47	240	5
TAP	47	336	3
TAP	47	336	6
TAP	48	0	5
TAP	48	48	4
TAP	48	96	1
TAP	48	96	4
TAP	48	144	0
TAP	48	192	0
TAP	48	192	7
STR	48	240	1
SCL	48	240	1	96	144	3
TAP	48	288	1
XTP	48	336	3
STR	49	144	6
SI_	49	144	6	96	48	3
TAP	49	192	4
TAP	49	240	6
STR	49	288	0
SF_	49	288	0	96	48	4
BRK	50	0	0
TAP	50	144	1
TAP	50	144	7
TAP	50	192	2
TAP	50	192	6
TAP	50	240	3
STR	50	240	5
SI_	50	240	5	96	48	0
STR	50	336	1
SI_	50	336	1	96	48	4
TAP	50	336	5
TAP	51	48	1
STR	51	48	7
SCL	51	48	7	96	144	1
XTP	51	144	3
XTP	51	144	7
TAP	51	240	0
TAP	51	288	0
TAP	51	336	6
TAP	52	0	3
TAP	52	0	6
TAP	52	48	5
TAP	52	96	2
TAP	52	96	4
TAP	52	144	1
TAP	52	192	0
TAP	52	192	1
TAP	52	240	2
TAP	52	288	2
TAP	52	288	4
STR	52	336	3
SI_	52	336	3	96	48	7
TAP	53	48	6
TAP	53	96	5
TAP	53	144	0
STR	53	192	1
SI_	53	192	1	96	48	5
TAP	53	240	4
TAP	53	288	1
XTP	54	0	3
XTP	54	0	7
XHO	54	144	6	96
XST	54	240	4
SCL	54	240	4	96	48	1
STR	54	336	7
SCL	54	336	7	96	48	4
STR	55	48	0
SF_	55	48	0	96	48	4
XTP	55	144	0
BRK	55	240	2
BRK	55	240	6
STR	56	0	1
SCR	56	0	1	96	48	4
TAP	56	0	5
TAP	56	96	1
STR	56	144	7
SI_	56	144	7	96	48	3
TAP	56	240	7
STR	56	288	1
SCR	56	288	1	96	48	4
TAP	57	0	1
STR	57	48	0
SI_	57	48	0	96	48	4
TAP	57	144	0
XTP	57	192	2
XTP	57	288	3
XTP	57	288	5
TAP	58	0	4
TAP	58	0	6
TAP	58	48	5
TAP	58	96	0
TAP	58	144	1
TAP	58	144	3
TAP	58	192	2
TAP	58	240	7
TAP	58	288	4
TAP	58	288	6
TAP	58	336	5
TAP	59	0	3
TAP	59	0	4
TAP	59	48	2
TAP	59	96	1
TAP	59	144	0
STR	59	192	7
SI_	59	192	7	96	48	3
XTP	59	288	3
XTP	59	288	7
XTP	60	0	2
XHO	60	0	4	768
XTP	60	192	5
XTP	61	192	5
XTP	62	0	1
TAP	62	192	1
TAP	62	192	6
TAP	62	240	0
TAP	62	264	7
TAP	62	288	1
TAP	62	312	6
TAP	62	336	1
TAP	62	360	6
TAP	63	0	1
TAP	63	24	2
TAP	63	48	3
TAP	63	72	4
TAP	63	96	7
TAP	63	120	6
TAP	63	144	5
TAP	63	168	4
TTP	63	192	0	C	1	M1
BRK	64	0	7
STR	64	48	7
SCL	64	48	7	96	48	4
TAP	64	144	2
TAP	64	168	1
TAP	64	192	0
TAP	64	288	6
TAP	64	288	7
HLD	65	0	6	72
HLD	65	72	5	72
TAP	65	144	4
TAP	65	192	3
TAP	65	192	4
TAP	65	288	2
TAP	65	288	5
TAP	66	0	1
TAP	66	0	4
TAP	66	48	1
STR	66	48	4
SCR	66	48	4	96	48	7
TAP	66	144	1
TAP	66	168	2
TAP	66	192	3
TAP	66	288	2
TAP	66	288	6
XTP	67	0	3
HLD	67	0	4	192
XTP	67	72	3
XTP	67	144	3
TAP	67	192	3
TAP	67	216	2
TAP	67	240	1
TAP	67	264	0
TAP	67	288	6
TAP	67	312	5
TAP	67	336	4
TAP	67	360	3
XTP	68	0	0
XST	68	48	0
SCR	68	48	0	96	48	3
TAP	68	144	4
TAP	68	168	5
TAP	68	192	6
TAP	68	288	2
TAP	68	288	7
HLD	69	0	6	72
HLD	69	72	4	72
TAP	69	144	3
TAP	69	192	2
TAP	69	192	3
TAP	69	288	0
TAP	69	288	1
TAP	70	0	4
TAP	70	0	6
STR	70	48	4
SCL	70	48	4	96	48	1
TAP	70	48	6
TAP	70	144	7
TAP	70	168	6
TAP	70	192	5
TAP	70	288	0
TAP	70	288	7
TAP	71	0	1
HLD	71	0	6	72
HLD	71	72	5	72
TAP	71	144	4
HLD	71	192	1	72
HLD	71	264	2	72
TAP	71	336	3
THO	72	0	0	768	C	0	M1
HLD	78	0	3	768
STR	79	0	4
SCR	79	0	4	96	288	7
TAP	80	192	3
TAP	80	192	4
TAP	80	240	3
TAP	80	240	4
XHO	80	336	2	96
XHO	80	336	5	96
TAP	81	96	2
TAP	81	96	5
TAP	81	192	3
TAP	81	288	4
STR	82	0	6
SCL	82	0	6	96	192	3
TAP	82	96	3
TAP	82	192	2
TAP	82	288	0
TAP	82	336	0
STR	83	0	1
SCR	83	0	1	96	192	4
TAP	83	96	4
TAP	83	192	5
TAP	83	288	7
TAP	83	336	7
HLD	84	0	6	96
HLD	84	96	4	96
TAP	84	192	5
TAP	84	288	3
TAP	84	336	3
HLD	85	0	2	96
TAP	85	0	4
HLD	85	96	3	96
TAP	85	192	1
TAP	85	288	0
TAP	85	288	7
TAP	85	336	0
TAP	85	336	7
XTP	86	0	1
XTP	86	0	6
TAP	86	48	2
TAP	86	72	3
TAP	86	96	2
XTP	86	144	5
TAP	86	168	4
TAP	86	192	5
XTP	86	240	2
TAP	86	264	3
TAP	86	288	2
TAP	86	336	6
TAP	86	360	4
TAP	87	0	5
TAP	87	48	1
TAP	87	72	3
TAP	87	96	2
XTP	87	144	6
TAP	87	168	4
TAP	87	192	5
XTP	87	240	0
XTP	87	240	7
XTP	87	288	1
XTP	87	288	6
XTP	88	0	3
XTP	88	0	4
XHO	88	48	3	336
HLD	88	48	4	720
THO	90	0	0	288	C	0	M1
TAP	91	0	0
TAP	91	0	7
BRK	91	48	1
BRK	91	48	6
TAP	91	144	4
TAP	91	192	3
TAP	91	240	2
TAP	91	240	5
STR	91	288	1
SI_	91	288	1	96	48	4
STR	91	288	6
SI_	91	288	6	96	48	3
TAP	92	0	1
TAP	92	0	6
BRK	92	96	0
BRK	92	96	7
TAP	92	192	4
TAP	92	192	5
TAP	92	240	3
STR	92	240	6
SI_	92	240	6	96	48	3
STR	92	336	2
SI_	92	336	2	96	48	7
TAP	92	336	6
TAP	93	48	2
STR	93	48	4
SCR	93	48	4	96	144	2
XTP	93	144	0
XTP	93	144	4
TAP	93	240	3
TAP	93	288	3
TAP	93	336	5
TAP	94	0	0
TAP	94	0	5
TAP	94	48	6
TAP	94	96	1
TAP	94	96	7
TAP	94	144	2
TAP	94	192	2
TAP	94	192	3
TAP	94	240	4
TAP	94	288	1
TAP	94	288	5
STR	94	336	0
SI_	94	336	0	96	48	4
TAP	95	48	5
TAP	95	96	6
TAP	95	144	3
STR	95	192	2
SI_	95	192	2	96	48	6
TAP	95	240	4
TAP	95	288	2
XTP	96	0	0
XTP	96	0	4
XHO	96	144	2	96
XST	96	240	0
SCL	96	240	0	96	48	5
STR	96	336	3
SCL	96	336	3	96	48	0
STR	97	48	4
SI_	97	48	4	96	48	0
XTP	97	144	4
XTP	97	240	2
XTP	97	240	7
TAP	97	336	3
TAP	97	336	6
TAP	98	0	7
TAP	98	48	0
TAP	98	96	1
TAP	98	96	3
TAP	98	144	2
TAP	98	192	3
TAP	98	192	4
STR	98	240	5
SCL	98	240	5	96	144	7
TAP	98	288	5
BRK	98	336	7
STR	99	144	6
SI_	99	144	6	96	48	2
TAP	99	192	0
TAP	99	240	6
STR	99	288	4
SF_	99	288	4	96	48	0
BRK	100	0	4
TAP	100	144	3
TAP	100	144	5
TAP	100	192	2
TAP	100	192	6
STR	100	240	1
SI_	100	240	1	96	48	4
TAP	100	240	7
TAP	100	336	1
STR	100	336	5
SI_	100	336	5	96	48	1
STR	101	48	3
SCL	101	48	3	96	144	5
TAP	101	48	5
XTP	101	144	3
XTP	101	144	7
TAP	101	240	4
TAP	101	288	4
TAP	101	336	2
TAP	102	0	2
TAP	102	0	7
TAP	102	48	1
TAP	102	96	0
TAP	102	96	6
TAP	102	144	5
TAP	102	192	3
TAP	102	192	5
TAP	102	240	2
TAP	102	288	1
TAP	102	288	7
HLD	102	336	0	96
TAP	103	48	4
STR	103	96	6
SI_	103	96	6	96	48	3
STR	103	144	2
SI_	103	144	2	96	48	7
TAP	103	192	6
TAP	103	240	2
TAP	103	288	4
TAP	103	336	4
BRK	104	0	2
BRK	104	0	6
XHO	104	144	5	96
XST	104	240	7
SCR	104	240	7	96	48	2
STR	104	336	4
SCR	104	336	4	96	48	7
STR	105	48	3
SF_	105	48	3	96	48	7
XTP	105	144	3
BRK	105	240	1
BRK	105	240	5
STR	106	0	2
SCL	106	0	2	96	48	7
TAP	106	0	6
TAP	106	96	2
STR	106	144	6
SI_	106	144	6	96	48	3
TAP	106	240	6
STR	106	288	2
SCL	106	288	2	96	48	7
TAP	107	0	2
STR	107	48	6
SI_	107	48	6	96	48	2
TAP	107	144	6
XTP	107	192	0
XTP	107	288	1
XTP	107	288	4
TAP	108	0	4
TAP	108	0	6
TAP	108	48	5
TAP	108	96	0
TAP	108	144	1
TAP	108	144	3
TAP	108	192	2
TAP	108	240	7
TAP	108	288	3
TAP	108	288	6
TAP	108	336	5
TAP	109	0	2
STR	109	0	4
SI_	109	0	4	96	48	0
XST	109	96	1
SCR	109	96	1	96	48	4
XTP	109	96	4
XTP	109	192	1
XTP	109	192	7
BRK	109	288	0
BRK	109	288	6
XST	110	0	2
SI_	110	0	2	96	48	7
TAP	110	0	4
TAP	110	96	2
XST	110	144	6
SI_	110	144	6	96	48	2
TAP	110	240	6
XST	110	288	1
SCL	110	288	1	96	48	6
TAP	111	0	1
XST	111	48	5
SCL	111	48	5	96	48	2
TAP	111	144	5
XTP	111	192	0
XTP	111	288	3
XTP	111	288	5
XTP	112	0	1
XTP	112	0	6
TAP	112	48	2
TAP	112	72	3
TAP	112	96	2
XTP	112	144	1
XTP	112	144	6
TAP	112	192	5
TAP	112	216	4
TAP	112	240	5
XST	112	288	0
SI_	112	288	0	96	48	4
TAP	112	312	7
TAP	112	336	0
TAP	112	360	7
XTP	113	0	0
XTP	113	48	6
XST	113	96	6
SCL	113	96	6	96	48	3
SCR	113	96	6	96	48	1
BRK	113	192	6
THO	113	288	0	672	C	0	M1
BST	115	288	0
SI_	115	288	0	96	48	3
BST	115	288	7
SI_	115	288	7	96	48	4
BRK	115	336	0
BRK	115	336	7

T_REC_TAP	438
T_REC_BRK	23
T_REC_XTP	80
T_REC_HLD	43
T_REC_XHO	9
T_REC_STR	63
T_REC_BST	2
T_REC_XST	15
T_REC_TTP	26
T_REC_THO	5
T_REC_SLD	81
T_REC_ALL	785
T_NUM_TAP	622
T_NUM_BRK	25
T_NUM_HLD	57
T_NUM_SLD	81
T_NUM_ALL	785
T_JUDGE_TAP	647
T_JUDGE_HLD	228
T_JUDGE_SLD	81
T_JUDGE_ALL	956
TTM_EACHPAIRS	157
TTM_SCR_TAP	311000
TTM_SCR_BRK	65000
TTM_SCR_HLD	57000
TTM_SCR_SLD	121500
TTM_SCR_ALL	554500
TTM_SCR_S	535450
TTM_SCR_SS	552000
TTM_RAT_ACV	10045

