VERSION	0.00.00	1.03.00
FES_MODE	0
BPM_DEF	192.000	192.000	192.000	192.000
MET_DEF	4	4
RESOLUTION	384
CLK_DEF	384
COMPATIBLE_CODE	MA2

BPM	0	0	192.000
MET	0	0	4	4

XTP	2	0	3
XTP	2	0	4
XTP	2	48	3
XTP	2	48	4
HLD	2	144	5	288
TAP	2	240	4
TAP	2	336	4
TAP	3	48	4
XTP	3	144	4
XTP	3	144	5
XTP	4	0	3
XTP	4	0	4
XTP	4	48	3
XTP	4	48	4
HLD	4	144	2	288
TAP	4	240	3
TAP	4	336	3
TAP	5	48	3
XTP	5	144	1
XTP	5	144	3
XTP	6	0	3
XTP	6	0	4
XTP	6	48	3
XTP	6	48	4
HLD	6	144	5	192
TAP	6	240	4
HLD	6	336	2	192
TAP	7	48	3
HLD	7	144	6	192
TAP	7	240	7
TAP	7	336	1
TAP	8	0	1
TAP	8	96	0
TAP	8	96	1
TAP	8	192	6
TAP	8	288	6
TAP	8	288	7
XTP	9	0	0
XTP	9	48	7
XTP	9	96	0
BRK	9	192	1
BRK	9	192	6
TAP	10	0	6
TAP	10	96	6
TAP	10	96	7
HLD	10	192	5	96
TAP	10	288	4
TAP	10	336	4
TAP	11	48	2
TAP	11	48	3
TAP	11	144	1
TAP	11	144	4
XTP	11	240	0
XTP	11	288	0
TAP	12	0	1
TAP	12	96	0
TAP	12	96	1
HLD	12	192	2	96
TAP	12	288	3
TAP	12	336	3
TAP	13	48	4
TAP	13	48	5
TAP	13	144	3
TAP	13	144	6
XTP	13	240	7
XTP	13	288	7
TAP	14	0	6
TAP	14	96	6
TAP	14	96	7
HLD	14	192	5	96
TAP	14	288	4
TAP	14	336	4
TAP	15	48	2
TAP	15	48	3
TAP	15	144	1
TAP	15	144	4
XTP	15	240	0
XTP	15	288	0
TAP	16	0	6
TAP	16	48	6
XTP	16	96	6
XTP	16	96	7
TAP	16	192	1
TAP	16	240	1
XTP	16	288	0
XTP	16	288	1
XTP	17	0	0
XTP	17	0	7
XTP	17	96	3
XTP	17	96	4
BRK	17	192	1
BRK	17	192	6
TAP	18	0	5
TAP	18	96	5
TAP	18	192	4
TAP	18	192	6
HLD	18	288	5	96
TAP	19	0	4
TAP	19	96	4
XTP	19	192	4
XTP	19	192	6
TAP	19	288	5
TAP	20	0	2
TAP	20	96	2
TAP	20	192	1
TAP	20	192	3
HLD	20	288	2	96
TAP	21	0	3
TAP	21	96	3
XTP	21	192	1
XTP	21	192	3
TAP	22	0	2
TAP	22	96	2
TAP	22	192	1
TAP	22	192	3
HLD	22	288	2	96
TAP	23	0	3
TAP	23	96	3
XTP	23	192	1
XTP	23	192	3
TAP	23	288	2
TAP	24	0	5
TAP	24	96	5
TAP	24	192	6
TAP	24	288	6
TAP	25	0	0
TAP	25	0	7
TAP	25	96	0
TAP	25	96	7
HLD	25	192	1	192
HLD	25	192	6	192
TAP	26	96	1
TAP	26	96	3
TAP	26	192	2
TAP	26	192	3
HLD	26	288	4	96
TAP	27	0	3
TAP	27	96	3
XTP	27	192	4
XTP	27	192	6
TAP	27	288	7
TAP	28	0	6
TAP	28	96	6
TAP	28	192	4
TAP	28	192	5
HLD	28	288	3	96
TAP	29	0	4
TAP	29	96	4
XTP	29	192	1
XTP	29	192	3
TAP	30	0	1
TAP	30	96	1
TAP	30	192	2
TAP	30	192	3
HLD	30	288	4	96
TAP	31	0	3
TAP	31	96	3
XTP	31	192	4
XTP	31	192	6
TAP	31	288	5
TAP	32	0	2
TAP	32	96	2
TAP	32	96	3
TAP	32	192	1
TAP	32	288	0
TAP	32	288	1
TAP	33	0	7
TAP	33	96	0
TAP	33	96	7
BRK	33	192	1
BRK	33	192	6
XST	34	0	7
SXR	34	0	7	96	336	3
TAP	35	192	0
TAP	35	288	0
XST	36	0	0
SXL	36	0	0	96	336	4
TAP	37	192	7
TAP	37	288	7
XST	38	0	7
SCL	38	0	7	96	192	4
XST	39	0	3
SCL	39	0	3	96	192	0
TAP	40	0	7
TAP	40	96	7
TAP	40	192	0
TAP	40	192	7
TAP	40	288	1
TAP	40	288	6
BRK	40	336	1
BRK	40	336	6
XTP	41	192	0
XTP	41	288	0
HLD	42	0	1	96
TAP	42	0	7
TAP	42	96	3
TAP	42	192	4
HLD	42	192	6	96
TAP	42	288	7
TAP	42	336	7
TAP	43	48	0
TAP	43	48	1
XTP	43	144	2
XTP	43	144	7
XTP	43	240	0
XTP	43	288	0
TAP	44	0	6
TAP	44	96	4
TAP	44	96	5
TAP	44	192	2
TAP	44	288	1
TAP	44	288	3
TAP	44	336	1
TAP	44	336	3
TAP	45	48	0
TAP	45	48	7
TAP	45	144	4
TAP	45	144	6
TAP	45	240	3
TAP	45	240	4
TAP	45	288	3
TAP	45	288	4
XTP	46	0	1
XTP	46	0	6
XTP	46	96	0
XTP	46	144	0
TAP	46	240	1
TAP	46	240	7
TAP	46	336	2
TAP	46	336	3
TAP	47	48	4
TAP	47	48	5
TAP	47	144	7
XTP	47	240	0
XTP	47	240	6
TAP	47	336	5
TAP	48	0	5
TAP	48	96	2
TAP	48	96	3
TAP	48	192	0
TAP	48	192	7
XTP	48	288	4
XTP	48	288	5
XTP	48	336	4
XTP	48	336	5
TAP	49	48	0
TAP	49	96	0
BRK	49	192	1
BRK	49	192	5
TAP	50	0	0
HLD	50	0	6	96
TAP	50	96	4
HLD	50	192	1	96
TAP	50	192	3
TAP	50	288	0
TAP	50	336	0
TAP	51	48	6
TAP	51	48	7
XTP	51	144	0
XTP	51	144	5
XTP	51	240	7
XTP	51	288	7
TAP	52	0	1
TAP	52	96	2
TAP	52	96	3
TAP	52	192	5
TAP	52	288	4
TAP	52	288	6
TAP	52	336	4
TAP	52	336	6
TAP	53	48	0
TAP	53	48	7
TAP	53	144	1
TAP	53	144	3
TAP	53	240	3
TAP	53	240	4
TAP	53	288	3
TAP	53	288	4
XTP	54	0	1
XTP	54	0	6
XTP	54	96	7
XTP	54	144	7
TAP	54	240	0
TAP	54	240	6
TAP	54	336	4
TAP	54	336	5
TAP	55	48	2
TAP	55	48	3
TAP	55	144	0
TAP	55	144	7
XTP	55	240	1
XTP	55	240	6
XTP	55	288	1
XTP	55	288	6
HLD	56	0	0	96
TAP	56	96	6
HLD	56	144	6	96
TAP	56	240	4
HLD	56	288	4	96
TAP	57	0	2
HLD	57	48	2	96
TAP	57	144	1
TAP	57	192	1
XTP	57	288	0
XTP	57	288	1
HLD	58	0	2	96
TAP	58	96	4
HLD	58	144	4	96
TAP	58	240	6
HLD	58	288	6	96
TAP	59	0	7
HLD	59	48	7	96
TAP	59	144	0
TAP	59	192	0
BRK	59	288	1
BRK	59	288	6
XHO	60	0	3	384
XHO	60	0	4	1152
TAP	62	0	3
TAP	62	192	3
TAP	63	0	3
TAP	63	48	3
TAP	63	96	4
TAP	63	144	4
BRK	63	192	2
BRK	63	192	5
TTP	64	0	6	E	0	M1
TTP	64	192	3	E	0	M1
TTP	64	192	4	E	0	M1
TTP	65	0	2	E	0	M1
TTP	65	192	4	E	0	M1
TTP	65	192	5	E	0	M1
TTP	66	0	0	E	0	M1
TTP	66	96	7	E	0	M1
TTP	66	192	6	E	0	M1
TTP	66	288	5	E	0	M1
TTP	67	0	4	E	0	M1
TTP	67	96	3	E	0	M1
THO	67	192	0	192	C	0	M1
TTP	67	192	2	E	0	M1
TTP	68	0	1	E	0	M1
TTP	68	192	0	E	0	M1
TTP	68	192	7	E	0	M1
TTP	69	0	3	E	0	M1
TTP	69	192	4	E	0	M1
TTP	69	192	5	E	0	M1
TTP	70	0	2	E	0	M1
TTP	70	96	1	E	0	M1
TTP	70	192	0	E	0	M1
TTP	70	288	7	E	0	M1
TTP	71	0	6	E	0	M1
TTP	71	96	3	B	0	M1
TTP	71	96	4	B	0	M1
THO	71	192	0	192	C	1	M1
TTP	71	192	2	B	0	M1
TTP	71	192	5	B	0	M1
HLD	74	0	2	768
HLD	76	0	3	768
HLD	78	0	4	768
TAP	80	0	5
TAP	80	192	5
XTP	81	0	4
XTP	81	0	5
XTP	81	192	6
XTP	81	288	6
TAP	82	0	5
TAP	82	96	5
TAP	82	192	4
TAP	82	288	4
TAP	83	0	3
TAP	83	96	3
XTP	83	192	2
XTP	83	240	2
XTP	83	288	2
TAP	84	0	1
TAP	84	96	1
TAP	84	192	0
TAP	84	288	0
TAP	85	0	7
TAP	85	96	7
XTP	85	192	6
XTP	85	240	6
XTP	85	288	6
TAP	86	0	5
TAP	86	96	4
TAP	86	96	5
TAP	86	192	2
TAP	86	288	2
TAP	86	288	3
TAP	87	0	1
TAP	87	96	0
TAP	87	96	1
TAP	87	192	7
TAP	87	288	0
TAP	87	288	7
HLD	88	0	1	576
HLD	88	0	6	576
TTP	90	0	0	C	1	M1
TTP	90	0	2	B	0	M1
TTP	90	0	5	B	0	M1
XTP	91	0	1
XTP	91	0	6
XTP	91	48	1
XTP	91	48	6
XTP	91	192	7
XTP	91	288	7
XTP	92	0	3
XTP	92	0	4
BRK	92	96	1
BRK	92	96	6
TAP	92	192	0
HLD	92	192	2	96
TAP	92	288	3
TAP	92	336	3
TAP	93	48	6
TAP	93	48	7
XTP	93	144	0
XTP	93	144	5
XTP	93	240	7
XTP	93	288	7
TAP	94	0	1
TAP	94	96	2
TAP	94	96	3
TAP	94	192	7
TAP	94	288	4
TAP	94	288	6
TAP	94	336	4
TAP	94	336	6
TAP	95	48	1
TAP	95	48	3
TAP	95	144	0
TAP	95	144	7
TAP	95	240	4
TAP	95	240	5
TAP	95	288	4
TAP	95	288	5
XTP	96	0	2
XTP	96	0	7
XTP	96	96	1
XTP	96	144	1
TAP	96	240	0
TAP	96	240	6
TAP	96	336	4
TAP	96	336	5
TAP	97	48	2
TAP	97	48	3
TAP	97	144	0
XTP	97	240	1
XTP	97	240	7
TAP	97	336	2
TAP	98	0	2
TAP	98	96	4
TAP	98	96	5
TAP	98	192	0
TAP	98	192	7
XTP	98	288	1
XTP	98	288	3
XTP	98	336	1
XTP	98	336	3
TAP	99	48	4
TAP	99	48	6
TAP	99	96	4
TAP	99	96	6
BRK	99	192	1
BRK	99	192	5
HLD	100	0	2	96
TAP	100	0	3
TAP	100	96	0
TAP	100	192	4
HLD	100	192	5	96
TAP	100	288	7
TAP	100	336	7
TAP	101	48	0
TAP	101	48	1
XTP	101	144	2
XTP	101	144	7
XTP	101	240	0
XTP	101	288	0
TAP	102	0	6
TAP	102	96	4
TAP	102	96	5
TAP	102	192	0
TAP	102	288	1
TAP	102	288	3
TAP	102	336	1
TAP	102	336	3
TAP	103	48	4
TAP	103	48	5
TAP	103	144	0
TAP	103	144	7
TAP	103	240	2
TAP	103	240	3
TAP	103	288	2
TAP	103	288	3
XTP	104	0	0
XTP	104	0	5
XTP	104	96	6
XTP	104	144	6
TAP	104	240	1
TAP	104	240	7
TAP	104	336	2
TAP	104	336	3
TAP	105	48	4
TAP	105	48	5
TAP	105	144	0
TAP	105	144	7
XTP	105	240	1
XTP	105	240	6
XTP	105	288	1
XTP	105	288	6
HLD	106	0	7	96
TAP	106	96	1
HLD	106	144	1	96
TAP	106	240	3
HLD	106	288	3	96
TAP	107	0	5
HLD	107	48	5	96
TAP	107	144	6
TAP	107	192	6
XTP	107	288	6
XTP	107	288	7
HLD	108	0	5	96
TAP	108	96	3
HLD	108	144	3	96
TAP	108	240	1
HLD	108	288	1	96
TAP	109	0	0
HLD	109	48	0	96
TAP	109	144	7
TAP	109	192	7
BRK	109	288	1
BRK	109	288	6
TAP	110	0	0
TAP	110	0	1
TAP	110	96	2
TAP	110	96	3
TAP	110	192	4
TAP	110	192	5
TAP	110	288	6
TAP	110	288	7
TAP	111	0	0
TAP	111	0	1
TAP	111	96	2
TAP	111	96	3
TAP	111	192	4
TAP	111	192	5
XTP	111	288	2
XTP	111	288	7
TAP	112	0	6
TAP	112	0	7
TAP	112	96	4
TAP	112	96	5
TAP	112	192	2
TAP	112	192	3
TAP	112	288	0
TAP	112	288	1
TAP	113	0	6
TAP	113	0	7
TAP	113	96	4
TAP	113	96	5
TAP	113	192	2
TAP	113	192	3
BRK	113	288	0
BST	113	288	5
SCR	113	288	5	96	480	2
TTP	115	288	0	C	1	M1
TTP	115	288	1	B	0	M1
TTP	115	288	2	B	0	M1
TTP	115	288	5	B	0	M1
TTP	115	288	6	B	0	M1

T_REC_TAP	332
T_REC_BRK	21
T_REC_XTP	123
T_REC_HLD	44
T_REC_XHO	2
T_REC_STR	0
T_REC_BST	1
T_REC_XST	4
T_REC_TTP	36
T_REC_THO	2
T_REC_SLD	5
T_REC_ALL	570
T_NUM_TAP	495
T_NUM_BRK	22
T_NUM_HLD	48
T_NUM_SLD	5
T_NUM_ALL	570
T_JUDGE_TAP	517
T_JUDGE_HLD	208
T_JUDGE_SLD	5
T_JUDGE_ALL	730
TTM_EACHPAIRS	159
TTM_SCR_TAP	247500
TTM_SCR_BRK	57200
TTM_SCR_HLD	48000
TTM_SCR_SLD	7500
TTM_SCR_ALL	360200
TTM_SCR_S	347300
TTM_SCR_SS	358000
TTM_RAT_ACV	10061

